<?xml version="1.0" standalone="no"?>
<!DOCTYPE svg PUBLIC "-//W3C//DTD SVG 1.1//EN" "http://www.w3.org/Graphics/SVG/1.1/DTD/svg11.dtd" >
<svg xmlns="http://www.w3.org/2000/svg" xmlns:xlink="http://www.w3.org/1999/xlink" version="1.1">
<metadata>
Created by FontForge 20190801 at Tue Feb 18 00:35:43 2020
 By Unknown
Copyright \(c\) 2019 by Alfredo Marco Pradil. All rights reserved.
</metadata>
<defs>
<font id="HKGrotesk-Black" horiz-adv-x="664" >
  <font-face 
    font-family="HK Grotesk Black"
    font-weight="900"
    font-stretch="normal"
    units-per-em="1000"
    panose-1="0 0 10 0 0 0 0 0 0 0"
    ascent="800"
    descent="-200"
    x-height="493"
    cap-height="697"
    bbox="-722 -260 1304 1126"
    underline-thickness="60"
    underline-position="-121"
    unicode-range="U+0020-FB02"
  />
<missing-glyph horiz-adv-x="562" 
d="M79 0v471h404v-471h-404zM129 51h303v369h-303v-369z" />
    <glyph glyph-name="f_f" unicode="ff" horiz-adv-x="610" 
d="M77 0v376h-79v117h79v29c0 120 105 186 220 186c47 0 96 -10 137 -35c33 23 69 35 106 35c34 0 70 -8 97 -20l-48 -125c-8 6 -18 11 -34 11c-15 0 -28 -9 -28 -33v-48h98v-117h-98v-376h-151v376h-149v-376h-150zM227 493h150v60v16c-21 11 -42 18 -73 18
c-57 0 -77 -28 -77 -68v-26z" />
    <glyph glyph-name="f_f_i" unicode="ffi" horiz-adv-x="880" 
d="M77 0v376h-79v117h79v29c0 120 105 186 220 186c51 0 109 -13 155 -45c40 29 95 45 152 45c92 0 152 -17 214 -53l-70 -107c-37 24 -81 39 -137 39c-61 0 -84 -34 -84 -65v-29h299v-493h-150v376h-149v-376h-151v376h-149v-376h-150zM227 493h149v32c0 13 4 42 4 44
c-17 9 -43 18 -76 18c-57 0 -77 -28 -77 -68v-26z" />
    <glyph glyph-name="f_f_l" unicode="ffl" horiz-adv-x="902" 
d="M794 -11c-69 0 -118 33 -118 111v483c-26 3 -44 4 -65 4c-61 0 -84 -34 -84 -65v-29h83v-117h-83v-376h-151v376h-149v-376h-150v376h-79v117h79v29c0 120 105 186 220 186c52 0 110 -14 153 -44c42 28 98 44 154 44c97 0 155 -19 222 -57v-509c0 -11 12 -15 27 -15
c9 0 19 1 34 4v-126c-35 -10 -64 -16 -93 -16zM227 493h149v32c0 12 1 24 3 44c-17 9 -42 18 -75 18c-57 0 -77 -28 -77 -68v-26z" />
    <glyph glyph-name="fi" unicode="fi" horiz-adv-x="572" 
d="M514 493v-493h-150v376h-137v-376h-150v376h-79v117h79v32c0 111 108 183 227 183c96 0 156 -19 214 -53l-70 -107c-38 25 -82 39 -136 39c-62 0 -85 -34 -85 -65v-29h287z" />
    <glyph glyph-name="fl" unicode="fl" horiz-adv-x="633" 
d="M523 -11c-69 0 -117 32 -117 99v488c-26 7 -56 11 -89 11c-64 0 -88 -34 -88 -65v-29h95l-1 -117h-94v-376h-151v376h-80v117h80v32c0 110 110 183 231 183c93 0 141 -5 249 -54v-512c0 -6 10 -15 26 -15c10 0 20 1 34 4v-126c-34 -10 -65 -16 -95 -16z" />
    <glyph glyph-name="H_d_c_o.liga" unicode="Hdco" horiz-adv-x="798" 
d="M399 -10c-209 0 -378 170 -378 378s169 378 378 378s378 -170 378 -378s-169 -378 -378 -378zM399 26c189 0 342 154 342 342s-153 342 -342 342s-342 -154 -342 -342s153 -342 342 -342zM183 217c-10 0 -18 8 -18 18v265c0 10 8 18 18 18s18 -8 18 -18v-265
c0 -10 -8 -18 -18 -18zM399 217c-10 0 -18 8 -18 18v265c0 10 8 18 18 18s18 -8 18 -18v-265c0 -10 -8 -18 -18 -18zM617 217c-5 0 -10 2 -13 5l-145 134c-4 3 -5 8 -5 12s2 9 5 12l143 131c5 5 9 7 14 7c6 0 17 -5 17 -17c0 -4 -1 -8 -5 -12l-132 -121l132 -122
c3 -3 5 -7 5 -12c0 -8 -7 -17 -16 -17zM255 350c-10 0 -18 8 -18 18s8 18 18 18h72c10 0 18 -8 18 -18s-8 -18 -18 -18h-72z" />
    <glyph glyph-name="h_d_c_o.liga" unicode="hdco" horiz-adv-x="798" 
d="M399 -10c-209 0 -378 170 -378 378s169 378 378 378s378 -170 378 -378s-169 -378 -378 -378zM399 26c189 0 342 154 342 342s-153 342 -342 342s-342 -154 -342 -342s153 -342 342 -342zM183 217c-10 0 -18 8 -18 18v265c0 10 8 18 18 18s18 -8 18 -18v-265
c0 -10 -8 -18 -18 -18zM399 217c-10 0 -18 8 -18 18v265c0 10 8 18 18 18s18 -8 18 -18v-265c0 -10 -8 -18 -18 -18zM617 217c-5 0 -10 2 -13 5l-145 134c-4 3 -5 8 -5 12s2 9 5 12l143 131c5 5 9 7 14 7c6 0 17 -5 17 -17c0 -4 -1 -8 -5 -12l-132 -121l132 -122
c3 -3 5 -7 5 -12c0 -8 -7 -17 -16 -17zM255 350c-10 0 -18 8 -18 18s8 18 18 18h72c10 0 18 -8 18 -18s-8 -18 -18 -18h-72z" />
    <glyph glyph-name="hyphen_greater.liga" unicode="&#x2d;&#x3e;" horiz-adv-x="1114" 
d="M554 -25l-51 100l283 160l-786 -1v112l786 -2l-283 161l51 100l565 -316z" />
    <glyph glyph-name="less_hyphen.liga" unicode="&#x3c;&#x2d;" horiz-adv-x="1114" 
d="M560 -25l-565 314l565 316l51 -100l-283 -161l786 2v-112l-786 1l283 -160z" />
    <glyph glyph-name=".notdef" horiz-adv-x="562" 
d="M79 0v471h404v-471h-404zM129 51h303v369h-303v-369z" />
    <glyph glyph-name="space" unicode=" " horiz-adv-x="243" 
 />
    <glyph glyph-name="A" unicode="A" 
d="M508 0l-45 118h-262l-45 -118h-171l290 697h115l289 -697h-171zM256 262h153l-76 201z" />
    <glyph glyph-name="Aacute" unicode="&#xc1;" 
d="M553 901l-166 -143h-109l113 143h162zM508 0l-45 118h-262l-45 -118h-171l290 697h115l289 -697h-171zM256 262h153l-76 201z" />
    <glyph glyph-name="Abreve" unicode="&#x102;" 
d="M333 767c-112 0 -159 48 -159 134h106c0 -33 27 -47 53 -47c28 0 53 16 53 47h106c0 -92 -53 -134 -159 -134zM508 0l-45 118h-262l-45 -118h-171l290 697h115l289 -697h-171zM256 262h153l-76 201z" />
    <glyph glyph-name="uni1EAE" unicode="&#x1eae;" 
d="M553 1105l-166 -143h-109l113 143h162zM333 767c-112 0 -159 48 -159 134h106c0 -33 27 -47 53 -47c28 0 53 16 53 47h106c0 -92 -53 -134 -159 -134zM508 0l-45 118h-262l-45 -118h-171l290 697h115l289 -697h-171zM256 262h153l-76 201z" />
    <glyph glyph-name="uni1EB6" unicode="&#x1eb6;" 
d="M333 767c-112 0 -159 48 -159 134h106c0 -33 27 -47 53 -47c28 0 53 16 53 47h106c0 -92 -53 -134 -159 -134zM679 0h-171l-45 118h-262l-45 -118h-171l290 697h115zM256 262h153l-76 201zM256 -173v117h154v-117h-154z" />
    <glyph glyph-name="uni1EB0" unicode="&#x1eb0;" 
d="M388 962h-111l-153 143h160zM333 854c28 0 53 16 53 47h106c0 -92 -53 -134 -159 -134c-112 0 -159 48 -159 134h106c0 -33 27 -47 53 -47zM508 0l-45 118h-262l-45 -118h-171l290 697h115l289 -697h-171zM256 262h153l-76 201z" />
    <glyph glyph-name="uni1EB2" unicode="&#x1eb2;" 
d="M344 1008c0 26 -34 26 -71 26h-16v92h16c106 0 176 -38 176 -107c0 -79 -85 -93 -143 -101l-17 61c28 4 55 5 55 29zM333 767c-112 0 -159 48 -159 134h106c0 -33 27 -47 53 -47c28 0 53 16 53 47h106c0 -92 -53 -134 -159 -134zM508 0l-45 118h-262l-45 -118h-171
l290 697h115l289 -697h-171zM256 262h153l-76 201z" />
    <glyph glyph-name="uni1EB4" unicode="&#x1eb4;" 
d="M268 1015c-13 0 -21 -20 -21 -60h-86c0 97 44 152 114 152c65 0 95 -60 119 -60c11 0 20 19 20 58h90c0 -98 -43 -149 -112 -149c-75 0 -97 59 -124 59zM333 854c28 0 53 16 53 47h106c0 -92 -53 -134 -159 -134c-112 0 -159 48 -159 134h106c0 -33 27 -47 53 -47zM508 0
l-45 118h-262l-45 -118h-171l290 697h115l289 -697h-171zM256 262h153l-76 201z" />
    <glyph glyph-name="uni01CD" unicode="&#x1cd;" 
d="M493 901l-160 -171l-160 171h115l45 -50l46 50h114zM508 0l-45 118h-262l-45 -118h-171l290 697h115l289 -697h-171zM256 262h153l-76 201z" />
    <glyph glyph-name="Acircumflex" unicode="&#xc2;" 
d="M333 797l-46 -56h-114l160 183l160 -183h-114zM508 0l-45 118h-262l-45 -118h-171l290 697h115l289 -697h-171zM256 262h153l-76 201z" />
    <glyph glyph-name="uni1EA4" unicode="&#x1ea4;" 
d="M553 1088l-166 -143h-109l113 143h162zM333 797l-46 -56h-114l160 183l160 -183h-114zM508 0l-45 118h-262l-45 -118h-171l290 697h115l289 -697h-171zM256 262h153l-76 201z" />
    <glyph glyph-name="uni1EAC" unicode="&#x1eac;" 
d="M333 797l-46 -56h-114l160 183l160 -183h-114zM679 0h-171l-45 118h-262l-45 -118h-171l290 697h115zM256 262h153l-76 201zM256 -173v117h154v-117h-154z" />
    <glyph glyph-name="uni1EA6" unicode="&#x1ea6;" 
d="M388 945h-111l-153 143h160zM173 741l160 183l160 -183h-114l-46 56l-46 -56h-114zM508 0l-45 118h-262l-45 -118h-171l290 697h115l289 -697h-171zM256 262h153l-76 201z" />
    <glyph glyph-name="uni1EA8" unicode="&#x1ea8;" 
d="M287 741h-114l141 161c-3 0 -5 -1 -8 -1l-17 61c28 4 55 5 55 29c0 26 -34 26 -71 26h-16v92h16c106 0 176 -38 176 -107c0 -62 -52 -84 -102 -94l146 -167h-114l-46 56zM508 0l-45 118h-262l-45 -118h-171l290 697h115l289 -697h-171zM256 262h153l-76 201z" />
    <glyph glyph-name="uni1EAA" unicode="&#x1eaa;" 
d="M268 998c-13 0 -21 -20 -21 -60h-86c0 97 44 152 114 152c65 0 95 -60 119 -60c11 0 20 19 20 58h90c0 -98 -43 -149 -112 -149c-75 0 -97 59 -124 59zM173 741l160 183l160 -183h-114l-46 56l-46 -56h-114zM508 0l-45 118h-262l-45 -118h-171l290 697h115l289 -697h-171
zM256 262h153l-76 201z" />
    <glyph glyph-name="Adieresis" unicode="&#xc4;" 
d="M288 901v-136h-114v136h114zM492 901v-136h-114v136h114zM508 0l-45 118h-262l-45 -118h-171l290 697h115l289 -697h-171zM256 262h153l-76 201z" />
    <glyph glyph-name="uni1EA0" unicode="&#x1ea0;" 
d="M679 0h-171l-45 118h-262l-45 -118h-171l290 697h115zM256 262h153l-76 201zM256 -173v117h154v-117h-154z" />
    <glyph glyph-name="Agrave" unicode="&#xc0;" 
d="M388 758h-111l-153 143h160zM508 0l-45 118h-262l-45 -118h-171l290 697h115l289 -697h-171zM256 262h153l-76 201z" />
    <glyph glyph-name="uni1EA2" unicode="&#x1ea2;" 
d="M344 804c0 26 -34 26 -71 26h-16v92h16c106 0 176 -38 176 -107c0 -79 -85 -93 -143 -101l-17 61c28 4 55 5 55 29zM508 0l-45 118h-262l-45 -118h-171l290 697h115l289 -697h-171zM256 262h153l-76 201z" />
    <glyph glyph-name="Amacron" unicode="&#x100;" 
d="M472 837v-87h-278v87h278zM508 0l-45 118h-262l-45 -118h-171l290 697h115l289 -697h-171zM256 262h153l-76 201z" />
    <glyph glyph-name="Aogonek" unicode="&#x104;" 
d="M649 -107l78 -51c-23 -37 -57 -69 -117 -69c-72 0 -125 45 -125 111c0 67 50 102 76 116h-53l-45 118h-262l-45 -118h-171l290 697h115l289 -697c-19 -5 -105 -46 -105 -100c0 -28 15 -35 32 -35c21 0 34 11 43 28zM256 262h153l-76 201z" />
    <glyph glyph-name="Aring" unicode="&#xc5;" 
d="M508 0l-45 118h-262l-45 -118h-171l287 690c-38 22 -63 64 -63 108c0 68 55 124 124 124c66 0 124 -54 124 -124c0 -47 -26 -87 -64 -108l286 -690h-171zM333 842c-28 0 -43 -18 -43 -42c0 -27 18 -46 43 -46c27 0 44 19 44 46c0 25 -15 42 -44 42zM256 262h153l-76 201z
" />
    <glyph glyph-name="Atilde" unicode="&#xc3;" 
d="M268 811c-13 0 -21 -20 -21 -60h-86c0 97 44 152 114 152c65 0 95 -60 119 -60c11 0 20 19 20 58h90c0 -98 -43 -149 -112 -149c-75 0 -97 59 -124 59zM508 0l-45 118h-262l-45 -118h-171l290 697h115l289 -697h-171zM256 262h153l-76 201z" />
    <glyph glyph-name="AE" unicode="&#xc6;" horiz-adv-x="929" 
d="M-15 0l289 697h612v-138h-332v-145h293v-132h-293v-140h332v-142h-490v143h-186l-54 -143h-171zM264 293h132v266h-28z" />
    <glyph glyph-name="B" unicode="B" horiz-adv-x="619" 
d="M71 0v697h260c143 0 229 -67 229 -177c0 -61 -25 -111 -68 -141c73 -32 106 -89 106 -170c0 -129 -88 -209 -230 -209h-297zM228 436h103c44 0 72 19 72 62c0 39 -28 55 -72 55h-103v-117zM228 144h127c63 0 86 28 86 72c0 73 -62 73 -86 73h-127v-145z" />
    <glyph glyph-name="C" unicode="C" horiz-adv-x="697" 
d="M372 -18c-211 0 -351 145 -351 366c0 223 139 369 348 369c156 0 271 -80 322 -212l-145 -57c-27 79 -92 119 -177 119c-120 0 -191 -78 -191 -217s73 -218 194 -218c87 0 150 41 174 122l147 -56c-49 -139 -166 -216 -321 -216z" />
    <glyph glyph-name="Cacute" unicode="&#x106;" horiz-adv-x="697" 
d="M320 758l113 143h162l-166 -143h-109zM372 -18c-211 0 -351 145 -351 366c0 223 139 369 348 369c156 0 271 -80 322 -212l-145 -57c-27 79 -92 119 -177 119c-120 0 -191 -78 -191 -217s73 -218 194 -218c87 0 150 41 174 122l147 -56c-49 -139 -166 -216 -321 -216z
" />
    <glyph glyph-name="Ccaron" unicode="&#x10c;" horiz-adv-x="697" 
d="M375 730l-160 171h115l45 -50l46 50h114zM372 -18c-211 0 -351 145 -351 366c0 223 139 369 348 369c156 0 271 -80 322 -212l-145 -57c-27 79 -92 119 -177 119c-120 0 -191 -78 -191 -217s73 -218 194 -218c87 0 150 41 174 122l147 -56c-49 -139 -166 -216 -321 -216z
" />
    <glyph glyph-name="Ccedilla" unicode="&#xc7;" horiz-adv-x="697" 
d="M693 198c-46 -130 -151 -206 -291 -215l-21 -23c19 -4 35 -12 47 -21c24 -19 34 -47 34 -77c0 -68 -50 -122 -124 -122c-14 0 -46 2 -79 23l46 73c13 -7 26 -11 37 -11c19 0 33 10 33 31c0 23 -15 35 -37 41c-21 6 -44 6 -71 6l53 82c-182 22 -299 161 -299 363
c0 223 139 369 348 369c156 0 271 -80 322 -212l-145 -57c-27 79 -92 119 -177 119c-120 0 -191 -78 -191 -217s73 -218 194 -218c87 0 150 41 174 122z" />
    <glyph glyph-name="Cdotaccent" unicode="&#x10a;" horiz-adv-x="697" 
d="M298 765v136h154v-136h-154zM372 -18c-211 0 -351 145 -351 366c0 223 139 369 348 369c156 0 271 -80 322 -212l-145 -57c-27 79 -92 119 -177 119c-120 0 -191 -78 -191 -217s73 -218 194 -218c87 0 150 41 174 122l147 -56c-49 -139 -166 -216 -321 -216z" />
    <glyph glyph-name="D" unicode="D" horiz-adv-x="668" 
d="M71 0v697h210c233 0 367 -128 367 -354c0 -222 -130 -343 -368 -343h-209zM228 144h36c142 0 226 37 226 205c0 162 -81 204 -212 204h-50v-409z" />
    <glyph glyph-name="Eth" unicode="&#xd0;" horiz-adv-x="668" 
d="M281 697c233 0 367 -128 367 -354c0 -222 -130 -343 -368 -343h-209v299h-82v100h82v298h210zM264 144c142 0 226 37 226 205c0 162 -81 204 -212 204h-50v-154h116v-100h-116v-155h36z" />
    <glyph glyph-name="Dcaron" unicode="&#x10e;" horiz-adv-x="668" 
d="M334 730l-160 171h115l45 -50l46 50h114zM71 0v697h210c233 0 367 -128 367 -354c0 -222 -130 -343 -368 -343h-209zM228 144h36c142 0 226 37 226 205c0 162 -81 204 -212 204h-50v-409z" />
    <glyph glyph-name="Dcroat" unicode="&#x110;" horiz-adv-x="668" 
d="M281 697c233 0 367 -128 367 -354c0 -222 -130 -343 -368 -343h-209v299h-82v100h82v298h210zM264 144c142 0 226 37 226 205c0 162 -81 204 -212 204h-50v-154h116v-100h-116v-155h36z" />
    <glyph glyph-name="E" unicode="E" horiz-adv-x="592" 
d="M71 0v697h468v-144h-311v-120h296v-145h-296v-144h311v-144h-468z" />
    <glyph glyph-name="Eacute" unicode="&#xc9;" horiz-adv-x="592" 
d="M250 758l113 143h162l-166 -143h-109zM71 0v697h468v-144h-311v-120h296v-145h-296v-144h311v-144h-468z" />
    <glyph glyph-name="Ecaron" unicode="&#x11a;" horiz-adv-x="592" 
d="M305 730l-160 171h115l45 -50l46 50h114zM71 0v697h468v-144h-311v-120h296v-145h-296v-144h311v-144h-468z" />
    <glyph glyph-name="Ecircumflex" unicode="&#xca;" horiz-adv-x="592" 
d="M145 741l160 183l160 -183h-114l-46 56l-46 -56h-114zM71 0v697h468v-144h-311v-120h296v-145h-296v-144h311v-144h-468z" />
    <glyph glyph-name="uni1EBE" unicode="&#x1ebe;" horiz-adv-x="592" 
d="M250 945l113 143h162l-166 -143h-109zM145 741l160 183l160 -183h-114l-46 56l-46 -56h-114zM71 0v697h468v-144h-311v-120h296v-145h-296v-144h311v-144h-468z" />
    <glyph glyph-name="uni1EC6" unicode="&#x1ec6;" horiz-adv-x="592" 
d="M145 741l160 183l160 -183h-114l-46 56l-46 -56h-114zM71 0v697h468v-144h-311v-120h296v-145h-296v-144h311v-144h-468zM228 -173v117h154v-117h-154z" />
    <glyph glyph-name="uni1EC0" unicode="&#x1ec0;" horiz-adv-x="592" 
d="M249 945l-153 143h160l104 -143h-111zM145 741l160 183l160 -183h-114l-46 56l-46 -56h-114zM71 0v697h468v-144h-311v-120h296v-145h-296v-144h311v-144h-468z" />
    <glyph glyph-name="uni1EC2" unicode="&#x1ec2;" horiz-adv-x="592" 
d="M259 741h-114l141 161c-3 0 -5 -1 -8 -1l-17 61c28 4 55 5 55 29c0 26 -34 26 -71 26h-16v92h16c106 0 176 -38 176 -107c0 -62 -52 -84 -102 -94l146 -167h-114l-46 56zM539 553h-311v-120h296v-145h-296v-144h311v-144h-468v697h468v-144z" />
    <glyph glyph-name="uni1EC4" unicode="&#x1ec4;" horiz-adv-x="592" 
d="M364 939c-75 0 -97 59 -124 59c-13 0 -21 -20 -21 -60h-86c0 97 44 152 114 152c65 0 95 -60 119 -60c11 0 20 19 20 58h90c0 -98 -43 -149 -112 -149zM145 741l160 183l160 -183h-114l-46 56l-46 -56h-114zM71 0v697h468v-144h-311v-120h296v-145h-296v-144h311v-144
h-468z" />
    <glyph glyph-name="Edieresis" unicode="&#xcb;" horiz-adv-x="592" 
d="M146 765v136h114v-136h-114zM350 765v136h114v-136h-114zM71 0v697h468v-144h-311v-120h296v-145h-296v-144h311v-144h-468z" />
    <glyph glyph-name="Edotaccent" unicode="&#x116;" horiz-adv-x="592" 
d="M228 765v136h154v-136h-154zM71 0v697h468v-144h-311v-120h296v-145h-296v-144h311v-144h-468z" />
    <glyph glyph-name="uni1EB8" unicode="&#x1eb8;" horiz-adv-x="592" 
d="M71 0v697h468v-144h-311v-120h296v-145h-296v-144h311v-144h-468zM228 -173v117h154v-117h-154z" />
    <glyph glyph-name="Egrave" unicode="&#xc8;" horiz-adv-x="592" 
d="M249 758l-153 143h160l104 -143h-111zM71 0v697h468v-144h-311v-120h296v-145h-296v-144h311v-144h-468z" />
    <glyph glyph-name="uni1EBA" unicode="&#x1eba;" horiz-adv-x="592" 
d="M278 714l-17 61c28 4 55 5 55 29c0 26 -34 26 -71 26h-16v92h16c106 0 176 -38 176 -107c0 -79 -85 -93 -143 -101zM71 0v697h468v-144h-311v-120h296v-145h-296v-144h311v-144h-468z" />
    <glyph glyph-name="Emacron" unicode="&#x112;" horiz-adv-x="592" 
d="M166 750v87h278v-87h-278zM71 0v697h468v-144h-311v-120h296v-145h-296v-144h311v-144h-468z" />
    <glyph glyph-name="Eogonek" unicode="&#x118;" horiz-adv-x="592" 
d="M509 -107l78 -51c-23 -37 -57 -69 -117 -69c-72 0 -125 45 -125 111c0 67 50 102 76 116h-350v697h468v-144h-311v-120h296v-145h-296v-144h311v-144c-19 -5 -105 -46 -105 -100c0 -28 15 -35 32 -35c21 0 34 11 43 28z" />
    <glyph glyph-name="uni1EBC" unicode="&#x1ebc;" horiz-adv-x="592" 
d="M364 752c-75 0 -97 59 -124 59c-13 0 -21 -20 -21 -60h-86c0 97 44 152 114 152c65 0 95 -60 119 -60c11 0 20 19 20 58h90c0 -98 -43 -149 -112 -149zM71 0v697h468v-144h-311v-120h296v-145h-296v-144h311v-144h-468z" />
    <glyph glyph-name="F" unicode="F" horiz-adv-x="591" 
d="M71 0v697h507v-144h-350v-120h309v-145h-309v-288h-157z" />
    <glyph glyph-name="G" unicode="G" horiz-adv-x="738" 
d="M384 387h307v-387h-108l-18 67c-43 -60 -114 -85 -200 -85c-212 0 -345 152 -345 360c0 217 145 375 350 375c139 0 266 -73 320 -212l-145 -57c-28 80 -97 119 -177 119c-114 0 -191 -76 -191 -220c0 -151 84 -215 201 -215c104 0 155 50 155 105v10h-149v140z" />
    <glyph glyph-name="Gbreve" unicode="&#x11e;" horiz-adv-x="738" 
d="M371 767c-112 0 -159 48 -159 134h106c0 -33 27 -47 53 -47c28 0 53 16 53 47h106c0 -92 -53 -134 -159 -134zM384 387h307v-387h-108l-18 67c-43 -60 -114 -85 -200 -85c-212 0 -345 152 -345 360c0 217 145 375 350 375c139 0 266 -73 320 -212l-145 -57
c-28 80 -97 119 -177 119c-114 0 -191 -76 -191 -220c0 -151 84 -215 201 -215c104 0 155 50 155 105v10h-149v140z" />
    <glyph glyph-name="uni0122" unicode="&#x122;" horiz-adv-x="738" 
d="M384 387h307v-387h-108l-18 67c-43 -60 -114 -85 -200 -85c-212 0 -345 152 -345 360c0 217 145 375 350 375c139 0 266 -73 320 -212l-145 -57c-28 80 -97 119 -177 119c-114 0 -191 -76 -191 -220c0 -151 84 -215 201 -215c104 0 155 50 155 105v10h-149v140zM236 -229
l54 178h157l-125 -178h-86z" />
    <glyph glyph-name="Gdotaccent" unicode="&#x120;" horiz-adv-x="738" 
d="M448 901v-136h-154v136h154zM384 387h307v-387h-108l-18 67c-43 -60 -114 -85 -200 -85c-212 0 -345 152 -345 360c0 217 145 375 350 375c139 0 266 -73 320 -212l-145 -57c-28 80 -97 119 -177 119c-114 0 -191 -76 -191 -220c0 -151 84 -215 201 -215
c104 0 155 50 155 105v10h-149v140z" />
    <glyph glyph-name="H" unicode="H" horiz-adv-x="727" 
d="M71 0v697h157v-265h271v265h157v-697h-157v288h-271v-288h-157z" />
    <glyph glyph-name="Hbar" unicode="&#x126;" horiz-adv-x="727" 
d="M699 600v-88h-43v-512h-157v288h-271v-288h-157v512h-41v88h41v97h157v-97h271v97h157v-97h43zM499 432v80h-271v-80h271z" />
    <glyph glyph-name="I" unicode="I" horiz-adv-x="299" 
d="M71 0v697h157v-697h-157z" />
    <glyph glyph-name="Iacute" unicode="&#xcd;" horiz-adv-x="299" 
d="M95 758l113 143h162l-166 -143h-109zM71 0v697h157v-697h-157z" />
    <glyph glyph-name="uni01CF" unicode="&#x1cf;" horiz-adv-x="299" 
d="M150 730l-160 171h115l45 -50l46 50h114zM71 0v697h157v-697h-157z" />
    <glyph glyph-name="Icircumflex" unicode="&#xce;" horiz-adv-x="299" 
d="M-10 741l160 183l160 -183h-114l-46 56l-46 -56h-114zM71 0v697h157v-697h-157z" />
    <glyph glyph-name="Idieresis" unicode="&#xcf;" horiz-adv-x="299" 
d="M-9 765v136h114v-136h-114zM195 765v136h114v-136h-114zM71 0v697h157v-697h-157z" />
    <glyph glyph-name="Idotaccent" unicode="&#x130;" horiz-adv-x="299" 
d="M73 765v136h154v-136h-154zM71 0v697h157v-697h-157z" />
    <glyph glyph-name="uni1ECA" unicode="&#x1eca;" horiz-adv-x="299" 
d="M71 0v697h157v-697h-157zM73 -173v117h154v-117h-154z" />
    <glyph glyph-name="Igrave" unicode="&#xcc;" horiz-adv-x="299" 
d="M94 758l-153 143h160l104 -143h-111zM71 0v697h157v-697h-157z" />
    <glyph glyph-name="uni1EC8" unicode="&#x1ec8;" horiz-adv-x="299" 
d="M123 714l-17 61c28 4 55 5 55 29c0 26 -34 26 -71 26h-16v92h16c106 0 176 -38 176 -107c0 -79 -85 -93 -143 -101zM71 0v697h157v-697h-157z" />
    <glyph glyph-name="Imacron" unicode="&#x12a;" horiz-adv-x="299" 
d="M11 750v87h278v-87h-278zM71 0v697h157v-697h-157z" />
    <glyph glyph-name="Iogonek" unicode="&#x12e;" horiz-adv-x="299" 
d="M198 -107l78 -51c-23 -37 -57 -69 -117 -69c-72 0 -125 45 -125 111c0 67 50 102 76 116h-39v697h157v-697c-19 -5 -105 -46 -105 -100c0 -28 15 -35 32 -35c21 0 34 11 43 28z" />
    <glyph glyph-name="Itilde" unicode="&#x128;" horiz-adv-x="299" 
d="M209 752c-75 0 -97 59 -124 59c-13 0 -21 -20 -21 -60h-86c0 97 44 152 114 152c65 0 95 -60 119 -60c11 0 20 19 20 58h90c0 -98 -43 -149 -112 -149zM71 0v697h157v-697h-157z" />
    <glyph glyph-name="J" unicode="J" horiz-adv-x="543" 
d="M243 -18c-140 0 -234 90 -244 243l155 17c5 -84 31 -115 89 -115c68 0 86 47 86 120v306h-251v144h409v-459c0 -157 -96 -256 -244 -256z" />
    <glyph glyph-name="K" unicode="K" horiz-adv-x="699" 
d="M709 0h-182l-193 320l-106 -107v-213h-157v697h157v-287l273 287h206l-267 -269z" />
    <glyph glyph-name="uni0136" unicode="&#x136;" horiz-adv-x="699" 
d="M440 428l269 -428h-182l-193 320l-106 -107v-213h-157v697h157v-287l273 287h206zM215 -229l54 178h157l-125 -178h-86z" />
    <glyph glyph-name="L" unicode="L" horiz-adv-x="509" 
d="M71 0v697h157v-553h286v-144h-443z" />
    <glyph glyph-name="Lacute" unicode="&#x139;" horiz-adv-x="509" 
d="M95 758l113 143h162l-166 -143h-109zM71 0v697h157v-553h286v-144h-443z" />
    <glyph glyph-name="Lcaron" unicode="&#x13d;" horiz-adv-x="509" 
d="M71 0v697h157v-553h286v-144h-443zM337 463l55 234h158l-126 -234h-87z" />
    <glyph glyph-name="uni013B" unicode="&#x13b;" horiz-adv-x="509" 
d="M71 0v697h157v-553h286v-144h-443zM160 -229l54 178h157l-125 -178h-86z" />
    <glyph glyph-name="Lslash" unicode="&#x141;" horiz-adv-x="509" 
d="M228 144h286v-144h-443v170l-50 -40v155l50 39v373h157v-249l87 69v-153l-87 -69v-151z" />
    <glyph glyph-name="M" unicode="M" horiz-adv-x="891" 
d="M596 697h224v-697h-157v471l-142 -408h-151l-142 406v-469h-157v697h224l149 -446z" />
    <glyph glyph-name="N" unicode="N" horiz-adv-x="722" 
d="M494 697h157v-697h-161l-262 427v-427h-157v697h160l263 -425v425z" />
    <glyph glyph-name="Nacute" unicode="&#x143;" horiz-adv-x="722" 
d="M582 901l-166 -143h-109l113 143h162zM494 697h157v-697h-161l-262 427v-427h-157v697h160l263 -425v425z" />
    <glyph glyph-name="Ncaron" unicode="&#x147;" horiz-adv-x="722" 
d="M522 901l-160 -171l-160 171h115l45 -50l46 50h114zM494 697h157v-697h-161l-262 427v-427h-157v697h160l263 -425v425z" />
    <glyph glyph-name="uni0145" unicode="&#x145;" horiz-adv-x="722" 
d="M494 697h157v-697h-161l-262 427v-427h-157v697h160l263 -425v425zM229 -229l54 178h157l-125 -178h-86z" />
    <glyph glyph-name="Eng" unicode="&#x14a;" horiz-adv-x="722" 
d="M494 697h157v-689c0 -97 -46 -197 -186 -197c-22 0 -42 0 -69 3l-2 99h28c52 0 79 22 79 48c0 8 -1 23 -11 39l-262 418v-418h-157v697h160l263 -415v415z" />
    <glyph glyph-name="Ntilde" unicode="&#xd1;" horiz-adv-x="722" 
d="M297 811c-13 0 -21 -20 -21 -60h-86c0 97 44 152 114 152c65 0 95 -60 119 -60c11 0 20 19 20 58h90c0 -98 -43 -149 -112 -149c-75 0 -97 59 -124 59zM494 697h157v-697h-161l-262 427v-427h-157v697h160l263 -425v425z" />
    <glyph glyph-name="O" unicode="O" horiz-adv-x="725" 
d="M362 -18c-202 0 -341 147 -341 366c0 220 139 367 341 367c204 0 342 -146 342 -367c0 -220 -140 -366 -342 -366zM362 132c113 0 184 83 184 216c0 134 -71 217 -184 217c-112 0 -184 -81 -184 -217c0 -135 72 -216 184 -216z" />
    <glyph glyph-name="Oacute" unicode="&#xd3;" horiz-adv-x="725" 
d="M307 758l113 143h162l-166 -143h-109zM362 -18c-202 0 -341 147 -341 366c0 220 139 367 341 367c204 0 342 -146 342 -367c0 -220 -140 -366 -342 -366zM362 132c113 0 184 83 184 216c0 134 -71 217 -184 217c-112 0 -184 -81 -184 -217c0 -135 72 -216 184 -216z" />
    <glyph glyph-name="uni01D1" unicode="&#x1d1;" horiz-adv-x="725" 
d="M362 730l-160 171h115l45 -50l46 50h114zM362 -18c-202 0 -341 147 -341 366c0 220 139 367 341 367c204 0 342 -146 342 -367c0 -220 -140 -366 -342 -366zM362 132c113 0 184 83 184 216c0 134 -71 217 -184 217c-112 0 -184 -81 -184 -217c0 -135 72 -216 184 -216z
" />
    <glyph glyph-name="Ocircumflex" unicode="&#xd4;" horiz-adv-x="725" 
d="M202 741l160 183l160 -183h-114l-46 56l-46 -56h-114zM362 -18c-202 0 -341 147 -341 366c0 220 139 367 341 367c204 0 342 -146 342 -367c0 -220 -140 -366 -342 -366zM362 132c113 0 184 83 184 216c0 134 -71 217 -184 217c-112 0 -184 -81 -184 -217
c0 -135 72 -216 184 -216z" />
    <glyph glyph-name="uni1ED0" unicode="&#x1ed0;" horiz-adv-x="725" 
d="M307 945l113 143h162l-166 -143h-109zM202 741l160 183l160 -183h-114l-46 56l-46 -56h-114zM362 -18c-202 0 -341 147 -341 366c0 220 139 367 341 367c204 0 342 -146 342 -367c0 -220 -140 -366 -342 -366zM362 132c113 0 184 83 184 216c0 134 -71 217 -184 217
c-112 0 -184 -81 -184 -217c0 -135 72 -216 184 -216z" />
    <glyph glyph-name="uni1ED8" unicode="&#x1ed8;" horiz-adv-x="725" 
d="M202 741l160 183l160 -183h-114l-46 56l-46 -56h-114zM362 -18c-202 0 -341 147 -341 366c0 220 139 367 341 367c204 0 342 -146 342 -367c0 -220 -140 -366 -342 -366zM362 132c113 0 184 83 184 216c0 134 -71 217 -184 217c-112 0 -184 -81 -184 -217
c0 -135 72 -216 184 -216zM286 -173v117h154v-117h-154z" />
    <glyph glyph-name="uni1ED2" unicode="&#x1ed2;" horiz-adv-x="725" 
d="M306 945l-153 143h160l104 -143h-111zM202 741l160 183l160 -183h-114l-46 56l-46 -56h-114zM362 -18c-202 0 -341 147 -341 366c0 220 139 367 341 367c204 0 342 -146 342 -367c0 -220 -140 -366 -342 -366zM362 132c113 0 184 83 184 216c0 134 -71 217 -184 217
c-112 0 -184 -81 -184 -217c0 -135 72 -216 184 -216z" />
    <glyph glyph-name="uni1ED4" unicode="&#x1ed4;" horiz-adv-x="725" 
d="M316 741h-114l141 161c-3 0 -5 -1 -8 -1l-17 61c28 4 55 5 55 29c0 26 -34 26 -71 26h-16v92h16c106 0 176 -38 176 -107c0 -62 -52 -84 -102 -94l146 -167h-114l-46 56zM362 715c204 0 342 -146 342 -367c0 -220 -140 -366 -342 -366s-341 147 -341 366
c0 220 139 367 341 367zM362 132c113 0 184 83 184 216c0 134 -71 217 -184 217c-112 0 -184 -81 -184 -217c0 -135 72 -216 184 -216z" />
    <glyph glyph-name="uni1ED6" unicode="&#x1ed6;" horiz-adv-x="725" 
d="M421 939c-75 0 -97 59 -124 59c-13 0 -21 -20 -21 -60h-86c0 97 44 152 114 152c65 0 95 -60 119 -60c11 0 20 19 20 58h90c0 -98 -43 -149 -112 -149zM202 741l160 183l160 -183h-114l-46 56l-46 -56h-114zM362 -18c-202 0 -341 147 -341 366c0 220 139 367 341 367
c204 0 342 -146 342 -367c0 -220 -140 -366 -342 -366zM362 132c113 0 184 83 184 216c0 134 -71 217 -184 217c-112 0 -184 -81 -184 -217c0 -135 72 -216 184 -216z" />
    <glyph glyph-name="Odieresis" unicode="&#xd6;" horiz-adv-x="725" 
d="M203 765v136h114v-136h-114zM407 765v136h114v-136h-114zM362 -18c-202 0 -341 147 -341 366c0 220 139 367 341 367c204 0 342 -146 342 -367c0 -220 -140 -366 -342 -366zM362 132c113 0 184 83 184 216c0 134 -71 217 -184 217c-112 0 -184 -81 -184 -217
c0 -135 72 -216 184 -216z" />
    <glyph glyph-name="uni1ECC" unicode="&#x1ecc;" horiz-adv-x="725" 
d="M362 -18c-202 0 -341 147 -341 366c0 220 139 367 341 367c204 0 342 -146 342 -367c0 -220 -140 -366 -342 -366zM362 132c113 0 184 83 184 216c0 134 -71 217 -184 217c-112 0 -184 -81 -184 -217c0 -135 72 -216 184 -216zM286 -173v117h154v-117h-154z" />
    <glyph glyph-name="Ograve" unicode="&#xd2;" horiz-adv-x="725" 
d="M306 758l-153 143h160l104 -143h-111zM362 -18c-202 0 -341 147 -341 366c0 220 139 367 341 367c204 0 342 -146 342 -367c0 -220 -140 -366 -342 -366zM362 132c113 0 184 83 184 216c0 134 -71 217 -184 217c-112 0 -184 -81 -184 -217c0 -135 72 -216 184 -216z" />
    <glyph glyph-name="uni1ECE" unicode="&#x1ece;" horiz-adv-x="725" 
d="M362 715c204 0 342 -146 342 -367c0 -220 -140 -366 -342 -366s-341 147 -341 366c0 210 127 354 314 366l-17 61c28 4 55 5 55 29c0 26 -34 26 -71 26h-16v92h16c106 0 176 -38 176 -107c0 -78 -84 -93 -142 -101c9 1 17 1 26 1zM362 132c113 0 184 83 184 216
c0 134 -71 217 -184 217c-112 0 -184 -81 -184 -217c0 -135 72 -216 184 -216z" />
    <glyph glyph-name="Ohorn" unicode="&#x1a0;" horiz-adv-x="725" 
d="M653 697h104v-34c0 -64 -24 -125 -82 -154c19 -47 29 -101 29 -161c0 -220 -140 -366 -342 -366s-341 147 -341 366c0 220 139 367 341 367c111 0 202 -43 263 -118c21 12 28 38 28 75v25zM362 132c113 0 184 83 184 216c0 134 -71 217 -184 217
c-112 0 -184 -81 -184 -217c0 -135 72 -216 184 -216z" />
    <glyph glyph-name="uni1EDA" unicode="&#x1eda;" horiz-adv-x="725" 
d="M582 901l-166 -143h-109l113 143h162zM653 697h104v-34c0 -64 -24 -125 -82 -154c19 -47 29 -101 29 -161c0 -220 -140 -366 -342 -366s-341 147 -341 366c0 220 139 367 341 367c111 0 202 -43 263 -118c21 12 28 38 28 75v25zM362 132c113 0 184 83 184 216
c0 134 -71 217 -184 217c-112 0 -184 -81 -184 -217c0 -135 72 -216 184 -216z" />
    <glyph glyph-name="uni1EE2" unicode="&#x1ee2;" horiz-adv-x="725" 
d="M653 697h104v-34c0 -64 -24 -125 -82 -154c19 -47 29 -101 29 -161c0 -220 -140 -366 -342 -366s-341 147 -341 366c0 220 139 367 341 367c111 0 202 -43 263 -118c21 12 28 38 28 75v25zM362 132c113 0 184 83 184 216c0 134 -71 217 -184 217
c-112 0 -184 -81 -184 -217c0 -135 72 -216 184 -216zM286 -173v117h154v-117h-154z" />
    <glyph glyph-name="uni1EDC" unicode="&#x1edc;" horiz-adv-x="725" 
d="M417 758h-111l-153 143h160zM653 697h104v-34c0 -64 -24 -125 -82 -154c19 -47 29 -101 29 -161c0 -220 -140 -366 -342 -366s-341 147 -341 366c0 220 139 367 341 367c111 0 202 -43 263 -118c21 12 28 38 28 75v25zM362 132c113 0 184 83 184 216
c0 134 -71 217 -184 217c-112 0 -184 -81 -184 -217c0 -135 72 -216 184 -216z" />
    <glyph glyph-name="uni1EDE" unicode="&#x1ede;" horiz-adv-x="725" 
d="M653 697h104v-34c0 -64 -24 -125 -82 -154c19 -47 29 -101 29 -161c0 -220 -140 -366 -342 -366s-341 147 -341 366c0 210 127 354 314 366l-17 61c28 4 55 5 55 29c0 26 -34 26 -71 26h-16v92h16c106 0 176 -38 176 -107c0 -78 -84 -93 -142 -101c9 1 17 1 26 1
c111 0 202 -43 263 -118c21 12 28 38 28 75v25zM362 132c113 0 184 83 184 216c0 134 -71 217 -184 217c-112 0 -184 -81 -184 -217c0 -135 72 -216 184 -216z" />
    <glyph glyph-name="uni1EE0" unicode="&#x1ee0;" horiz-adv-x="725" 
d="M297 811c-13 0 -21 -20 -21 -60h-86c0 97 44 152 114 152c65 0 95 -60 119 -60c11 0 20 19 20 58h90c0 -98 -43 -149 -112 -149c-75 0 -97 59 -124 59zM653 697h104v-34c0 -64 -24 -125 -82 -154c19 -47 29 -101 29 -161c0 -220 -140 -366 -342 -366s-341 147 -341 366
c0 220 139 367 341 367c111 0 202 -43 263 -118c21 12 28 38 28 75v25zM362 132c113 0 184 83 184 216c0 134 -71 217 -184 217c-112 0 -184 -81 -184 -217c0 -135 72 -216 184 -216z" />
    <glyph glyph-name="Ohungarumlaut" unicode="&#x150;" horiz-adv-x="725" 
d="M205 731l113 170h135l-139 -170h-109zM410 731l113 170h160l-164 -170h-109zM362 -18c-202 0 -341 147 -341 366c0 220 139 367 341 367c204 0 342 -146 342 -367c0 -220 -140 -366 -342 -366zM362 132c113 0 184 83 184 216c0 134 -71 217 -184 217
c-112 0 -184 -81 -184 -217c0 -135 72 -216 184 -216z" />
    <glyph glyph-name="Omacron" unicode="&#x14c;" horiz-adv-x="725" 
d="M223 750v87h278v-87h-278zM362 -18c-202 0 -341 147 -341 366c0 220 139 367 341 367c204 0 342 -146 342 -367c0 -220 -140 -366 -342 -366zM362 132c113 0 184 83 184 216c0 134 -71 217 -184 217c-112 0 -184 -81 -184 -217c0 -135 72 -216 184 -216z" />
    <glyph glyph-name="Oslash" unicode="&#xd8;" horiz-adv-x="725" 
d="M616 607c56 -64 88 -153 88 -259c0 -220 -140 -366 -342 -366c-73 0 -138 19 -191 55l-29 -37h-103l70 90c-56 64 -88 152 -88 258c0 220 139 367 341 367c75 0 140 -20 194 -55l29 37h102zM178 348c0 -52 11 -97 31 -131l252 321c-28 18 -61 27 -99 27
c-112 0 -184 -81 -184 -217zM362 132c113 0 184 83 184 216c0 52 -11 96 -30 130l-251 -320c27 -17 60 -26 97 -26z" />
    <glyph glyph-name="Otilde" unicode="&#xd5;" horiz-adv-x="725" 
d="M421 752c-75 0 -97 59 -124 59c-13 0 -21 -20 -21 -60h-86c0 97 44 152 114 152c65 0 95 -60 119 -60c11 0 20 19 20 58h90c0 -98 -43 -149 -112 -149zM362 -18c-202 0 -341 147 -341 366c0 220 139 367 341 367c204 0 342 -146 342 -367c0 -220 -140 -366 -342 -366z
M362 132c113 0 184 83 184 216c0 134 -71 217 -184 217c-112 0 -184 -81 -184 -217c0 -135 72 -216 184 -216z" />
    <glyph glyph-name="OE" unicode="&#x152;" horiz-adv-x="1073" 
d="M1020 553h-311v-120h296v-145h-296v-144h311v-144h-468v35c-53 -34 -117 -53 -190 -53c-202 0 -341 147 -341 366c0 220 139 367 341 367c73 0 137 -19 190 -53v35h468v-144zM362 132c113 0 184 83 184 216c0 134 -71 217 -184 217c-112 0 -184 -81 -184 -217
c0 -135 72 -216 184 -216z" />
    <glyph glyph-name="P" unicode="P" horiz-adv-x="563" 
d="M71 0v697h245c161 0 242 -67 242 -205c0 -139 -83 -212 -242 -212h-89v-280h-156zM227 424h73c64 0 101 10 101 66c0 53 -32 63 -101 63h-73v-129z" />
    <glyph glyph-name="Thorn" unicode="&#xde;" horiz-adv-x="548" 
d="M71 0v697h143v-94h118c133 0 212 -73 212 -199c0 -134 -91 -213 -247 -213h-83v-191h-143zM214 321h83c64 0 104 19 104 78c0 61 -40 82 -104 82h-83v-160z" />
    <glyph glyph-name="Q" unicode="Q" horiz-adv-x="754" 
d="M750 29l-94 -91l-102 98c-53 -35 -119 -54 -192 -54c-201 0 -341 146 -341 366s139 367 341 367c204 0 342 -146 342 -367c0 -85 -21 -159 -58 -218zM362 132c28 0 54 5 77 15l-77 74l91 97l75 -73c12 29 18 64 18 103c0 134 -71 217 -184 217c-112 0 -184 -81 -184 -217
c0 -135 72 -216 184 -216z" />
    <glyph glyph-name="R" unicode="R" horiz-adv-x="614" 
d="M624 0h-182l-161 277h-39h-15v-277h-156v697h245c176 0 242 -82 242 -206c0 -99 -43 -164 -121 -195zM227 421h73c50 0 101 3 101 68c0 64 -52 64 -101 64h-73v-132z" />
    <glyph glyph-name="Racute" unicode="&#x154;" horiz-adv-x="614" 
d="M526 901l-166 -143h-109l113 143h162zM624 0h-182l-161 277h-39h-15v-277h-156v697h245c176 0 242 -82 242 -206c0 -99 -43 -164 -121 -195zM227 421h73c50 0 101 3 101 68c0 64 -52 64 -101 64h-73v-132z" />
    <glyph glyph-name="Rcaron" unicode="&#x158;" horiz-adv-x="614" 
d="M466 901l-160 -171l-160 171h115l45 -50l46 50h114zM624 0h-182l-161 277h-39h-15v-277h-156v697h245c176 0 242 -82 242 -206c0 -99 -43 -164 -121 -195zM227 421h73c50 0 101 3 101 68c0 64 -52 64 -101 64h-73v-132z" />
    <glyph glyph-name="uni0156" unicode="&#x156;" horiz-adv-x="614" 
d="M437 296l187 -296h-182l-161 277h-39h-15v-277h-156v697h245c176 0 242 -82 242 -206c0 -99 -43 -164 -121 -195zM227 421h73c50 0 101 3 101 68c0 64 -52 64 -101 64h-73v-132zM173 -229l54 178h157l-125 -178h-86z" />
    <glyph glyph-name="S" unicode="S" horiz-adv-x="546" 
d="M283 -15c-145 0 -259 87 -280 220l156 39c7 -82 57 -120 127 -120c51 0 93 25 93 78c0 32 -32 56 -123 93c-149 60 -203 115 -203 222c0 116 91 198 228 198c97 0 175 -45 220 -135l-130 -81c-21 51 -55 77 -95 77c-36 0 -66 -23 -66 -56c0 -34 27 -58 127 -97
c150 -58 198 -108 198 -207c0 -138 -110 -231 -252 -231z" />
    <glyph glyph-name="Sacute" unicode="&#x15a;" horiz-adv-x="546" 
d="M218 758l113 143h162l-166 -143h-109zM283 -15c-145 0 -259 87 -280 220l156 39c7 -82 57 -120 127 -120c51 0 93 25 93 78c0 32 -32 56 -123 93c-149 60 -203 115 -203 222c0 116 91 198 228 198c97 0 175 -45 220 -135l-130 -81c-21 51 -55 77 -95 77
c-36 0 -66 -23 -66 -56c0 -34 27 -58 127 -97c150 -58 198 -108 198 -207c0 -138 -110 -231 -252 -231z" />
    <glyph glyph-name="Scaron" unicode="&#x160;" horiz-adv-x="546" 
d="M273 730l-160 171h115l45 -50l46 50h114zM283 -15c-145 0 -259 87 -280 220l156 39c7 -82 57 -120 127 -120c51 0 93 25 93 78c0 32 -32 56 -123 93c-149 60 -203 115 -203 222c0 116 91 198 228 198c97 0 175 -45 220 -135l-130 -81c-21 51 -55 77 -95 77
c-36 0 -66 -23 -66 -56c0 -34 27 -58 127 -97c150 -58 198 -108 198 -207c0 -138 -110 -231 -252 -231z" />
    <glyph glyph-name="Scedilla" unicode="&#x15e;" horiz-adv-x="546" 
d="M535 216c0 -132 -100 -222 -232 -230l-24 -26c19 -4 35 -12 47 -21c24 -19 34 -47 34 -77c0 -68 -50 -122 -124 -122c-14 0 -46 2 -79 23l46 73c13 -7 26 -11 37 -11c19 0 33 10 33 31c0 23 -15 35 -37 41c-21 6 -44 6 -71 6l57 87c-115 21 -201 101 -219 215l156 39
c7 -82 57 -120 127 -120c51 0 93 25 93 78c0 32 -32 56 -123 93c-149 60 -203 115 -203 222c0 116 91 198 228 198c97 0 175 -45 220 -135l-130 -81c-21 51 -55 77 -95 77c-36 0 -66 -23 -66 -56c0 -34 27 -58 127 -97c150 -58 198 -108 198 -207z" />
    <glyph glyph-name="uni0218" unicode="&#x218;" horiz-adv-x="546" 
d="M283 -15c-145 0 -259 87 -280 220l156 39c7 -82 57 -120 127 -120c51 0 93 25 93 78c0 32 -32 56 -123 93c-149 60 -203 115 -203 222c0 116 91 198 228 198c97 0 175 -45 220 -135l-130 -81c-21 51 -55 77 -95 77c-36 0 -66 -23 -66 -56c0 -34 27 -58 127 -97
c150 -58 198 -108 198 -207c0 -138 -110 -231 -252 -231zM140 -229l54 178h157l-125 -178h-86z" />
    <glyph glyph-name="uni1E9E" unicode="&#x1e9e;" horiz-adv-x="675" 
d="M455 -19c-114 0 -201 67 -224 151l133 70c18 -41 45 -76 96 -76c18 0 32 10 32 30c0 74 -211 45 -211 185c0 64 36 96 68 140l47 64h-55c-88 0 -131 -29 -131 -128v-417h-157v417c0 112 24 280 288 280h264v-127l-154 -190c-6 -7 -7 -11 -7 -15c0 -36 221 -13 221 -198
c0 -112 -89 -186 -210 -186z" />
    <glyph glyph-name="T" unicode="T" horiz-adv-x="556" 
d="M199 0v553h-204v144h566v-144h-203v-553h-159z" />
    <glyph glyph-name="Tbar" unicode="&#x166;" horiz-adv-x="556" 
d="M561 553h-203v-154h97v-100h-97v-299h-159v299h-99v100h99v154h-204v144h566v-144z" />
    <glyph glyph-name="Tcaron" unicode="&#x164;" horiz-adv-x="556" 
d="M278 730l-160 171h115l45 -50l46 50h114zM199 0v553h-204v144h566v-144h-203v-553h-159z" />
    <glyph glyph-name="uni0162" unicode="&#x162;" horiz-adv-x="556" 
d="M358 0h-37l-37 -40c19 -4 35 -12 47 -21c24 -19 34 -47 34 -77c0 -68 -50 -122 -124 -122c-14 0 -46 2 -79 23l46 73c13 -7 26 -11 37 -11c19 0 33 10 33 31c0 23 -15 35 -37 41c-21 6 -44 6 -71 6l63 97h-34v553h-204v144h566v-144h-203v-553z" />
    <glyph glyph-name="uni021A" unicode="&#x21a;" horiz-adv-x="556" 
d="M199 0v553h-204v144h566v-144h-203v-553h-159zM145 -229l54 178h157l-125 -178h-86z" />
    <glyph glyph-name="U" unicode="U" 
d="M332 -18c-183 0 -276 88 -276 270v445h157v-427c0 -97 18 -144 119 -144c100 0 119 48 119 142v429h157v-440c0 -185 -94 -275 -276 -275z" />
    <glyph glyph-name="Uacute" unicode="&#xda;" 
d="M278 758l113 143h162l-166 -143h-109zM332 -18c-183 0 -276 88 -276 270v445h157v-427c0 -97 18 -144 119 -144c100 0 119 48 119 142v429h157v-440c0 -185 -94 -275 -276 -275z" />
    <glyph glyph-name="uni01D3" unicode="&#x1d3;" 
d="M333 730l-160 171h115l45 -50l46 50h114zM332 -18c-183 0 -276 88 -276 270v445h157v-427c0 -97 18 -144 119 -144c100 0 119 48 119 142v429h157v-440c0 -185 -94 -275 -276 -275z" />
    <glyph glyph-name="Ucircumflex" unicode="&#xdb;" 
d="M173 741l160 183l160 -183h-114l-46 56l-46 -56h-114zM332 -18c-183 0 -276 88 -276 270v445h157v-427c0 -97 18 -144 119 -144c100 0 119 48 119 142v429h157v-440c0 -185 -94 -275 -276 -275z" />
    <glyph glyph-name="Udieresis" unicode="&#xdc;" 
d="M174 765v136h114v-136h-114zM378 765v136h114v-136h-114zM332 -18c-183 0 -276 88 -276 270v445h157v-427c0 -97 18 -144 119 -144c100 0 119 48 119 142v429h157v-440c0 -185 -94 -275 -276 -275z" />
    <glyph glyph-name="uni01D7" unicode="&#x1d7;" 
d="M278 962l113 143h162l-166 -143h-109zM174 765v136h114v-136h-114zM378 765v136h114v-136h-114zM332 -18c-183 0 -276 88 -276 270v445h157v-427c0 -97 18 -144 119 -144c100 0 119 48 119 142v429h157v-440c0 -185 -94 -275 -276 -275z" />
    <glyph glyph-name="uni01D9" unicode="&#x1d9;" 
d="M333 934l-160 171h115l45 -50l46 50h114zM174 765v136h114v-136h-114zM378 765v136h114v-136h-114zM332 -18c-183 0 -276 88 -276 270v445h157v-427c0 -97 18 -144 119 -144c100 0 119 48 119 142v429h157v-440c0 -185 -94 -275 -276 -275z" />
    <glyph glyph-name="uni01DB" unicode="&#x1db;" 
d="M277 962l-153 143h160l104 -143h-111zM174 765v136h114v-136h-114zM378 765v136h114v-136h-114zM332 -18c-183 0 -276 88 -276 270v445h157v-427c0 -97 18 -144 119 -144c100 0 119 48 119 142v429h157v-440c0 -185 -94 -275 -276 -275z" />
    <glyph glyph-name="uni01D5" unicode="&#x1d5;" 
d="M194 954v87h278v-87h-278zM174 765v136h114v-136h-114zM378 765v136h114v-136h-114zM332 -18c-183 0 -276 88 -276 270v445h157v-427c0 -97 18 -144 119 -144c100 0 119 48 119 142v429h157v-440c0 -185 -94 -275 -276 -275z" />
    <glyph glyph-name="uni1EE4" unicode="&#x1ee4;" 
d="M332 -18c-183 0 -276 88 -276 270v445h157v-427c0 -97 18 -144 119 -144c100 0 119 48 119 142v429h157v-440c0 -185 -94 -275 -276 -275zM256 -173v117h154v-117h-154z" />
    <glyph glyph-name="Ugrave" unicode="&#xd9;" 
d="M277 758l-153 143h160l104 -143h-111zM332 -18c-183 0 -276 88 -276 270v445h157v-427c0 -97 18 -144 119 -144c100 0 119 48 119 142v429h157v-440c0 -185 -94 -275 -276 -275z" />
    <glyph glyph-name="uni1EE6" unicode="&#x1ee6;" 
d="M306 714l-17 61c28 4 55 5 55 29c0 26 -34 26 -71 26h-16v92h16c106 0 176 -38 176 -107c0 -79 -85 -93 -143 -101zM332 -18c-183 0 -276 88 -276 270v445h157v-427c0 -97 18 -144 119 -144c100 0 119 48 119 142v429h157v-440c0 -185 -94 -275 -276 -275z" />
    <glyph glyph-name="Uhorn" unicode="&#x1af;" 
d="M661 697h104v-34c0 -87 -43 -167 -157 -172v-234c0 -185 -94 -275 -276 -275c-183 0 -276 88 -276 270v445h157v-427c0 -97 18 -144 119 -144c100 0 119 48 119 142v429h157v-108c41 5 53 35 53 83v25z" />
    <glyph glyph-name="uni1EE8" unicode="&#x1ee8;" 
d="M553 901l-166 -143h-109l113 143h162zM661 697h104v-34c0 -87 -43 -167 -157 -172v-234c0 -185 -94 -275 -276 -275c-183 0 -276 88 -276 270v445h157v-427c0 -97 18 -144 119 -144c100 0 119 48 119 142v429h157v-108c41 5 53 35 53 83v25z" />
    <glyph glyph-name="uni1EF0" unicode="&#x1ef0;" 
d="M661 697h104v-34c0 -87 -43 -167 -157 -172v-234c0 -185 -94 -275 -276 -275c-183 0 -276 88 -276 270v445h157v-427c0 -97 18 -144 119 -144c100 0 119 48 119 142v429h157v-108c41 5 53 35 53 83v25zM256 -173v117h154v-117h-154z" />
    <glyph glyph-name="uni1EEA" unicode="&#x1eea;" 
d="M388 758h-111l-153 143h160zM661 697h104v-34c0 -87 -43 -167 -157 -172v-234c0 -185 -94 -275 -276 -275c-183 0 -276 88 -276 270v445h157v-427c0 -97 18 -144 119 -144c100 0 119 48 119 142v429h157v-108c41 5 53 35 53 83v25z" />
    <glyph glyph-name="uni1EEC" unicode="&#x1eec;" 
d="M344 804c0 26 -34 26 -71 26h-16v92h16c106 0 176 -38 176 -107c0 -79 -85 -93 -143 -101l-17 61c28 4 55 5 55 29zM661 697h104v-34c0 -87 -43 -167 -157 -172v-234c0 -185 -94 -275 -276 -275c-183 0 -276 88 -276 270v445h157v-427c0 -97 18 -144 119 -144
c100 0 119 48 119 142v429h157v-108c41 5 53 35 53 83v25z" />
    <glyph glyph-name="uni1EEE" unicode="&#x1eee;" 
d="M268 811c-13 0 -21 -20 -21 -60h-86c0 97 44 152 114 152c65 0 95 -60 119 -60c11 0 20 19 20 58h90c0 -98 -43 -149 -112 -149c-75 0 -97 59 -124 59zM661 697h104v-34c0 -87 -43 -167 -157 -172v-234c0 -185 -94 -275 -276 -275c-183 0 -276 88 -276 270v445h157v-427
c0 -97 18 -144 119 -144c100 0 119 48 119 142v429h157v-108c41 5 53 35 53 83v25z" />
    <glyph glyph-name="Uhungarumlaut" unicode="&#x170;" 
d="M176 731l113 170h135l-139 -170h-109zM381 731l113 170h160l-164 -170h-109zM332 -18c-183 0 -276 88 -276 270v445h157v-427c0 -97 18 -144 119 -144c100 0 119 48 119 142v429h157v-440c0 -185 -94 -275 -276 -275z" />
    <glyph glyph-name="Umacron" unicode="&#x16a;" 
d="M194 750v87h278v-87h-278zM332 -18c-183 0 -276 88 -276 270v445h157v-427c0 -97 18 -144 119 -144c100 0 119 48 119 142v429h157v-440c0 -185 -94 -275 -276 -275z" />
    <glyph glyph-name="Uogonek" unicode="&#x172;" 
d="M451 697h157v-440c0 -162 -72 -251 -211 -271c-32 -17 -74 -48 -74 -86c0 -28 15 -35 32 -35c21 0 34 11 43 28l78 -51c-23 -37 -57 -69 -117 -69c-72 0 -125 45 -125 111c0 49 27 81 51 100c-152 14 -229 102 -229 268v445h157v-427c0 -97 18 -144 119 -144
c100 0 119 48 119 142v429z" />
    <glyph glyph-name="Uring" unicode="&#x16e;" 
d="M333 674c-70 0 -124 59 -124 124c0 68 55 124 124 124c66 0 124 -54 124 -124c0 -69 -56 -124 -124 -124zM333 754c27 0 44 19 44 46c0 25 -15 42 -44 42c-28 0 -43 -18 -43 -42c0 -27 18 -46 43 -46zM332 -18c-183 0 -276 88 -276 270v445h157v-427
c0 -97 18 -144 119 -144c100 0 119 48 119 142v429h157v-440c0 -185 -94 -275 -276 -275z" />
    <glyph glyph-name="Utilde" unicode="&#x168;" 
d="M392 752c-75 0 -97 59 -124 59c-13 0 -21 -20 -21 -60h-86c0 97 44 152 114 152c65 0 95 -60 119 -60c11 0 20 19 20 58h90c0 -98 -43 -149 -112 -149zM332 -18c-183 0 -276 88 -276 270v445h157v-427c0 -97 18 -144 119 -144c100 0 119 48 119 142v429h157v-440
c0 -185 -94 -275 -276 -275z" />
    <glyph glyph-name="V" unicode="V" horiz-adv-x="648" 
d="M488 697h174l-280 -697h-115l-281 697h173l166 -436z" />
    <glyph glyph-name="W" unicode="W" horiz-adv-x="986" 
d="M206 0l-213 697h164l134 -455l135 413h133l137 -413l133 455h165l-214 -697h-152l-135 406l-136 -406h-151z" />
    <glyph glyph-name="Wacute" unicode="&#x1e82;" horiz-adv-x="986" 
d="M438 758l113 143h162l-166 -143h-109zM206 0l-213 697h164l134 -455l135 413h133l137 -413l133 455h165l-214 -697h-152l-135 406l-136 -406h-151z" />
    <glyph glyph-name="Wcircumflex" unicode="&#x174;" horiz-adv-x="986" 
d="M333 741l160 183l160 -183h-114l-46 56l-46 -56h-114zM206 0l-213 697h164l134 -455l135 413h133l137 -413l133 455h165l-214 -697h-152l-135 406l-136 -406h-151z" />
    <glyph glyph-name="Wdieresis" unicode="&#x1e84;" horiz-adv-x="986" 
d="M334 765v136h114v-136h-114zM538 765v136h114v-136h-114zM206 0l-213 697h164l134 -455l135 413h133l137 -413l133 455h165l-214 -697h-152l-135 406l-136 -406h-151z" />
    <glyph glyph-name="Wgrave" unicode="&#x1e80;" horiz-adv-x="986" 
d="M437 758l-153 143h160l104 -143h-111zM206 0l-213 697h164l134 -455l135 413h133l137 -413l133 455h165l-214 -697h-152l-135 406l-136 -406h-151z" />
    <glyph glyph-name="X" unicode="X" horiz-adv-x="660" 
d="M-5 0l227 346l-228 351h188l149 -242l149 242h187l-228 -351l228 -346h-188l-149 233l-147 -233h-188z" />
    <glyph glyph-name="Y" unicode="Y" horiz-adv-x="641" 
d="M243 0v275l-264 422h185l154 -271l158 271h185l-261 -422v-275h-157z" />
    <glyph glyph-name="Yacute" unicode="&#xdd;" horiz-adv-x="641" 
d="M266 758l113 143h162l-166 -143h-109zM243 0v275l-264 422h185l154 -271l158 271h185l-261 -422v-275h-157z" />
    <glyph glyph-name="Ycircumflex" unicode="&#x176;" horiz-adv-x="641" 
d="M161 741l160 183l160 -183h-114l-46 56l-46 -56h-114zM243 0v275l-264 422h185l154 -271l158 271h185l-261 -422v-275h-157z" />
    <glyph glyph-name="Ydieresis" unicode="&#x178;" horiz-adv-x="641" 
d="M162 765v136h114v-136h-114zM366 765v136h114v-136h-114zM243 0v275l-264 422h185l154 -271l158 271h185l-261 -422v-275h-157z" />
    <glyph glyph-name="uni1EF4" unicode="&#x1ef4;" horiz-adv-x="641" 
d="M243 0v275l-264 422h185l154 -271l158 271h185l-261 -422v-275h-157zM244 -173v117h154v-117h-154z" />
    <glyph glyph-name="Ygrave" unicode="&#x1ef2;" horiz-adv-x="641" 
d="M265 758l-153 143h160l104 -143h-111zM243 0v275l-264 422h185l154 -271l158 271h185l-261 -422v-275h-157z" />
    <glyph glyph-name="uni1EF6" unicode="&#x1ef6;" horiz-adv-x="641" 
d="M294 714l-17 61c28 4 55 5 55 29c0 26 -34 26 -71 26h-16v92h16c106 0 176 -38 176 -107c0 -79 -85 -93 -143 -101zM243 0v275l-264 422h185l154 -271l158 271h185l-261 -422v-275h-157z" />
    <glyph glyph-name="uni1EF8" unicode="&#x1ef8;" horiz-adv-x="641" 
d="M380 752c-75 0 -97 59 -124 59c-13 0 -21 -20 -21 -60h-86c0 97 44 152 114 152c65 0 95 -60 119 -60c11 0 20 19 20 58h90c0 -98 -43 -149 -112 -149zM243 0v275l-264 422h185l154 -271l158 271h185l-261 -422v-275h-157z" />
    <glyph glyph-name="Z" unicode="Z" horiz-adv-x="608" 
d="M231 144h354v-144h-570v107l358 446h-335v144h546v-112z" />
    <glyph glyph-name="Zacute" unicode="&#x179;" horiz-adv-x="608" 
d="M524 901l-166 -143h-109l113 143h162zM231 144h354v-144h-570v107l358 446h-335v144h546v-112z" />
    <glyph glyph-name="Zcaron" unicode="&#x17d;" horiz-adv-x="608" 
d="M464 901l-160 -171l-160 171h115l45 -50l46 50h114zM231 144h354v-144h-570v107l358 446h-335v144h546v-112z" />
    <glyph glyph-name="Zdotaccent" unicode="&#x17b;" horiz-adv-x="608" 
d="M381 901v-136h-154v136h154zM231 144h354v-144h-570v107l358 446h-335v144h546v-112z" />
    <glyph glyph-name="uni1EB6.ss03" 
d="M333 767c-112 0 -159 48 -159 134h106c0 -33 27 -47 53 -47c28 0 53 16 53 47h106c0 -92 -53 -134 -159 -134zM679 0h-171l-45 118h-262l-45 -118h-171l290 697h115zM256 262h153l-76 201zM333 -38c48 0 85 -37 85 -85s-37 -86 -85 -86c-47 0 -85 38 -85 86s37 85 85 85z
" />
    <glyph glyph-name="uni1EAC.ss03" 
d="M333 797l-46 -56h-114l160 183l160 -183h-114zM679 0h-171l-45 118h-262l-45 -118h-171l290 697h115zM256 262h153l-76 201zM333 -38c48 0 85 -37 85 -85s-37 -86 -85 -86c-47 0 -85 38 -85 86s37 85 85 85z" />
    <glyph glyph-name="Adieresis.ss03" 
d="M230 741c-47 0 -85 38 -85 86s37 85 85 85s85 -37 85 -85s-37 -86 -85 -86zM436 741c-47 0 -85 38 -85 86s37 85 85 85s85 -37 85 -85s-37 -86 -85 -86zM508 0l-45 118h-262l-45 -118h-171l290 697h115l289 -697h-171zM256 262h153l-76 201z" />
    <glyph glyph-name="uni1EA0.ss03" 
d="M679 0h-171l-45 118h-262l-45 -118h-171l290 697h115zM256 262h153l-76 201zM333 -38c48 0 85 -37 85 -85s-37 -86 -85 -86c-47 0 -85 38 -85 86s37 85 85 85z" />
    <glyph glyph-name="Cdotaccent.ss03" horiz-adv-x="697" 
d="M375 741c-47 0 -85 38 -85 86s37 85 85 85s85 -37 85 -85s-37 -86 -85 -86zM372 -18c-211 0 -351 145 -351 366c0 223 139 369 348 369c156 0 271 -80 322 -212l-145 -57c-27 79 -92 119 -177 119c-120 0 -191 -78 -191 -217s73 -218 194 -218c87 0 150 41 174 122
l147 -56c-49 -139 -166 -216 -321 -216z" />
    <glyph glyph-name="uni1EC6.ss03" horiz-adv-x="592" 
d="M145 741l160 183l160 -183h-114l-46 56l-46 -56h-114zM71 0v697h468v-144h-311v-120h296v-145h-296v-144h311v-144h-468zM305 -209c-47 0 -85 38 -85 86s37 85 85 85s85 -37 85 -85s-37 -86 -85 -86z" />
    <glyph glyph-name="Edieresis.ss03" horiz-adv-x="592" 
d="M202 741c-47 0 -85 38 -85 86s37 85 85 85s85 -37 85 -85s-37 -86 -85 -86zM408 741c-47 0 -85 38 -85 86s37 85 85 85s85 -37 85 -85s-37 -86 -85 -86zM71 0v697h468v-144h-311v-120h296v-145h-296v-144h311v-144h-468z" />
    <glyph glyph-name="Edotaccent.ss03" horiz-adv-x="592" 
d="M305 741c-47 0 -85 38 -85 86s37 85 85 85s85 -37 85 -85s-37 -86 -85 -86zM71 0v697h468v-144h-311v-120h296v-145h-296v-144h311v-144h-468z" />
    <glyph glyph-name="uni1EB8.ss03" horiz-adv-x="592" 
d="M71 0v697h468v-144h-311v-120h296v-145h-296v-144h311v-144h-468zM305 -209c-47 0 -85 38 -85 86s37 85 85 85s85 -37 85 -85s-37 -86 -85 -86z" />
    <glyph glyph-name="Gdotaccent.ss03" horiz-adv-x="738" 
d="M371 741c-47 0 -85 38 -85 86s37 85 85 85s85 -37 85 -85s-37 -86 -85 -86zM384 387h307v-387h-108l-18 67c-43 -60 -114 -85 -200 -85c-212 0 -345 152 -345 360c0 217 145 375 350 375c139 0 266 -73 320 -212l-145 -57c-28 80 -97 119 -177 119
c-114 0 -191 -76 -191 -220c0 -151 84 -215 201 -215c104 0 155 50 155 105v10h-149v140z" />
    <glyph glyph-name="Idieresis.ss03" horiz-adv-x="299" 
d="M47 741c-47 0 -85 38 -85 86s37 85 85 85s85 -37 85 -85s-37 -86 -85 -86zM253 741c-47 0 -85 38 -85 86s37 85 85 85s85 -37 85 -85s-37 -86 -85 -86zM71 0v697h157v-697h-157z" />
    <glyph glyph-name="uni1ECA.ss03" horiz-adv-x="299" 
d="M71 0v697h157v-697h-157zM150 -209c-47 0 -85 38 -85 86s37 85 85 85s85 -37 85 -85s-37 -86 -85 -86z" />
    <glyph glyph-name="uni1ED8.ss03" horiz-adv-x="725" 
d="M202 741l160 183l160 -183h-114l-46 56l-46 -56h-114zM362 -18c-202 0 -341 147 -341 366c0 220 139 367 341 367c204 0 342 -146 342 -367c0 -220 -140 -366 -342 -366zM362 132c113 0 184 83 184 216c0 134 -71 217 -184 217c-112 0 -184 -81 -184 -217
c0 -135 72 -216 184 -216zM363 -209c-47 0 -85 38 -85 86s37 85 85 85s85 -37 85 -85s-37 -86 -85 -86z" />
    <glyph glyph-name="Odieresis.ss03" horiz-adv-x="725" 
d="M259 741c-47 0 -85 38 -85 86s37 85 85 85s85 -37 85 -85s-37 -86 -85 -86zM465 741c-47 0 -85 38 -85 86s37 85 85 85s85 -37 85 -85s-37 -86 -85 -86zM362 -18c-202 0 -341 147 -341 366c0 220 139 367 341 367c204 0 342 -146 342 -367c0 -220 -140 -366 -342 -366z
M362 132c113 0 184 83 184 216c0 134 -71 217 -184 217c-112 0 -184 -81 -184 -217c0 -135 72 -216 184 -216z" />
    <glyph glyph-name="uni1ECC.ss03" horiz-adv-x="725" 
d="M362 -18c-202 0 -341 147 -341 366c0 220 139 367 341 367c204 0 342 -146 342 -367c0 -220 -140 -366 -342 -366zM362 132c113 0 184 83 184 216c0 134 -71 217 -184 217c-112 0 -184 -81 -184 -217c0 -135 72 -216 184 -216zM363 -209c-47 0 -85 38 -85 86s37 85 85 85
s85 -37 85 -85s-37 -86 -85 -86z" />
    <glyph glyph-name="uni1EE2.ss03" horiz-adv-x="725" 
d="M653 697h104v-34c0 -64 -24 -125 -82 -154c19 -47 29 -101 29 -161c0 -220 -140 -366 -342 -366s-341 147 -341 366c0 220 139 367 341 367c111 0 202 -43 263 -118c21 12 28 38 28 75v25zM362 132c113 0 184 83 184 216c0 134 -71 217 -184 217
c-112 0 -184 -81 -184 -217c0 -135 72 -216 184 -216zM363 -38c48 0 85 -37 85 -85s-37 -86 -85 -86c-47 0 -85 38 -85 86s37 85 85 85z" />
    <glyph glyph-name="Udieresis.ss03" 
d="M230 741c-47 0 -85 38 -85 86s37 85 85 85s85 -37 85 -85s-37 -86 -85 -86zM436 741c-47 0 -85 38 -85 86s37 85 85 85s85 -37 85 -85s-37 -86 -85 -86zM332 -18c-183 0 -276 88 -276 270v445h157v-427c0 -97 18 -144 119 -144c100 0 119 48 119 142v429h157v-440
c0 -185 -94 -275 -276 -275z" />
    <glyph glyph-name="uni01D7.ss03" 
d="M278 973l113 143h162l-166 -143h-109zM230 741c-47 0 -85 38 -85 86s37 85 85 85s85 -37 85 -85s-37 -86 -85 -86zM436 741c-47 0 -85 38 -85 86s37 85 85 85s85 -37 85 -85s-37 -86 -85 -86zM332 -18c-183 0 -276 88 -276 270v445h157v-427c0 -97 18 -144 119 -144
c100 0 119 48 119 142v429h157v-440c0 -185 -94 -275 -276 -275z" />
    <glyph glyph-name="uni01D9.ss03" 
d="M333 945l-160 171h115l45 -50l46 50h114zM230 741c-47 0 -85 38 -85 86s37 85 85 85s85 -37 85 -85s-37 -86 -85 -86zM436 741c-47 0 -85 38 -85 86s37 85 85 85s85 -37 85 -85s-37 -86 -85 -86zM332 -18c-183 0 -276 88 -276 270v445h157v-427c0 -97 18 -144 119 -144
c100 0 119 48 119 142v429h157v-440c0 -185 -94 -275 -276 -275z" />
    <glyph glyph-name="uni01DB.ss03" 
d="M277 973l-153 143h160l104 -143h-111zM230 741c-47 0 -85 38 -85 86s37 85 85 85s85 -37 85 -85s-37 -86 -85 -86zM436 741c-47 0 -85 38 -85 86s37 85 85 85s85 -37 85 -85s-37 -86 -85 -86zM332 -18c-183 0 -276 88 -276 270v445h157v-427c0 -97 18 -144 119 -144
c100 0 119 48 119 142v429h157v-440c0 -185 -94 -275 -276 -275z" />
    <glyph glyph-name="uni01D5.ss03" 
d="M194 965v87h278v-87h-278zM230 741c-47 0 -85 38 -85 86s37 85 85 85s85 -37 85 -85s-37 -86 -85 -86zM436 741c-47 0 -85 38 -85 86s37 85 85 85s85 -37 85 -85s-37 -86 -85 -86zM332 -18c-183 0 -276 88 -276 270v445h157v-427c0 -97 18 -144 119 -144
c100 0 119 48 119 142v429h157v-440c0 -185 -94 -275 -276 -275z" />
    <glyph glyph-name="uni1EE4.ss03" 
d="M332 -18c-183 0 -276 88 -276 270v445h157v-427c0 -97 18 -144 119 -144c100 0 119 48 119 142v429h157v-440c0 -185 -94 -275 -276 -275zM333 -209c-47 0 -85 38 -85 86s37 85 85 85s85 -37 85 -85s-37 -86 -85 -86z" />
    <glyph glyph-name="uni1EF0.ss03" 
d="M661 697h104v-34c0 -87 -43 -167 -157 -172v-234c0 -185 -94 -275 -276 -275c-183 0 -276 88 -276 270v445h157v-427c0 -97 18 -144 119 -144c100 0 119 48 119 142v429h157v-108c41 5 53 35 53 83v25zM333 -38c48 0 85 -37 85 -85s-37 -86 -85 -86c-47 0 -85 38 -85 86
s37 85 85 85z" />
    <glyph glyph-name="Wdieresis.ss03" horiz-adv-x="986" 
d="M390 741c-47 0 -85 38 -85 86s37 85 85 85s85 -37 85 -85s-37 -86 -85 -86zM596 741c-47 0 -85 38 -85 86s37 85 85 85s85 -37 85 -85s-37 -86 -85 -86zM206 0l-213 697h164l134 -455l135 413h133l137 -413l133 455h165l-214 -697h-152l-135 406l-136 -406h-151z" />
    <glyph glyph-name="Ydieresis.ss03" horiz-adv-x="641" 
d="M218 741c-47 0 -85 38 -85 86s37 85 85 85s85 -37 85 -85s-37 -86 -85 -86zM424 741c-47 0 -85 38 -85 86s37 85 85 85s85 -37 85 -85s-37 -86 -85 -86zM243 0v275l-264 422h185l154 -271l158 271h185l-261 -422v-275h-157z" />
    <glyph glyph-name="uni1EF4.ss03" horiz-adv-x="641" 
d="M243 0v275l-264 422h185l154 -271l158 271h185l-261 -422v-275h-157zM321 -209c-47 0 -85 38 -85 86s37 85 85 85s85 -37 85 -85s-37 -86 -85 -86z" />
    <glyph glyph-name="Zdotaccent.ss03" horiz-adv-x="608" 
d="M304 741c-47 0 -85 38 -85 86s37 85 85 85s85 -37 85 -85s-37 -86 -85 -86zM231 144h354v-144h-570v107l358 446h-335v144h546v-112z" />
    <glyph glyph-name="a" unicode="a" horiz-adv-x="523" 
d="M257 504c140 0 224 -74 224 -191v-313h-138l-10 49c-40 -53 -93 -60 -129 -60c-111 0 -191 69 -191 170c0 57 26 98 68 121c31 17 70 25 114 25h136v8c0 35 -30 60 -85 60c-37 0 -75 -11 -119 -53l-109 91c62 65 153 93 239 93zM228 110c54 0 100 35 103 84h-114
c-16 0 -29 -3 -38 -9c-10 -7 -15 -17 -15 -29c0 -25 21 -46 64 -46z" />
    <glyph glyph-name="aacute" unicode="&#xe1;" horiz-adv-x="523" 
d="M475 697l-166 -143h-109l113 143h162zM257 504c140 0 224 -74 224 -191v-313h-138l-10 49c-40 -53 -93 -60 -129 -60c-111 0 -191 69 -191 170c0 57 26 98 68 121c31 17 70 25 114 25h136v8c0 35 -30 60 -85 60c-37 0 -75 -11 -119 -53l-109 91c62 65 153 93 239 93z
M228 110c54 0 100 35 103 84h-114c-16 0 -29 -3 -38 -9c-10 -7 -15 -17 -15 -29c0 -25 21 -46 64 -46z" />
    <glyph glyph-name="abreve" unicode="&#x103;" horiz-adv-x="523" 
d="M255 563c-112 0 -159 48 -159 134h106c0 -33 27 -47 53 -47c28 0 53 16 53 47h106c0 -92 -53 -134 -159 -134zM257 504c140 0 224 -74 224 -191v-313h-138l-10 49c-40 -53 -93 -60 -129 -60c-111 0 -191 69 -191 170c0 57 26 98 68 121c31 17 70 25 114 25h136v8
c0 35 -30 60 -85 60c-37 0 -75 -11 -119 -53l-109 91c62 65 153 93 239 93zM228 110c54 0 100 35 103 84h-114c-16 0 -29 -3 -38 -9c-10 -7 -15 -17 -15 -29c0 -25 21 -46 64 -46z" />
    <glyph glyph-name="uni1EAF" unicode="&#x1eaf;" horiz-adv-x="523" 
d="M475 901l-166 -143h-109l113 143h162zM255 563c-112 0 -159 48 -159 134h106c0 -33 27 -47 53 -47c28 0 53 16 53 47h106c0 -92 -53 -134 -159 -134zM257 504c140 0 224 -74 224 -191v-313h-138l-10 49c-40 -53 -93 -60 -129 -60c-111 0 -191 69 -191 170
c0 57 26 98 68 121c31 17 70 25 114 25h136v8c0 35 -30 60 -85 60c-37 0 -75 -11 -119 -53l-109 91c62 65 153 93 239 93zM228 110c54 0 100 35 103 84h-114c-16 0 -29 -3 -38 -9c-10 -7 -15 -17 -15 -29c0 -25 21 -46 64 -46z" />
    <glyph glyph-name="uni1EB7" unicode="&#x1eb7;" horiz-adv-x="523" 
d="M255 563c-112 0 -159 48 -159 134h106c0 -33 27 -47 53 -47c28 0 53 16 53 47h106c0 -92 -53 -134 -159 -134zM257 504c140 0 224 -74 224 -191v-313h-138l-10 49c-40 -53 -93 -60 -129 -60c-111 0 -191 69 -191 170c0 57 26 98 68 121c31 17 70 25 114 25h136v8
c0 35 -30 60 -85 60c-37 0 -75 -11 -119 -53l-109 91c62 65 153 93 239 93zM228 110c54 0 100 35 103 84h-114c-16 0 -29 -3 -38 -9c-10 -7 -15 -17 -15 -29c0 -25 21 -46 64 -46zM178 -173v117h154v-117h-154z" />
    <glyph glyph-name="uni1EB1" unicode="&#x1eb1;" horiz-adv-x="523" 
d="M310 758h-111l-153 143h160zM255 650c28 0 53 16 53 47h106c0 -92 -53 -134 -159 -134c-112 0 -159 48 -159 134h106c0 -33 27 -47 53 -47zM257 504c140 0 224 -74 224 -191v-313h-138l-10 49c-40 -53 -93 -60 -129 -60c-111 0 -191 69 -191 170c0 57 26 98 68 121
c31 17 70 25 114 25h136v8c0 35 -30 60 -85 60c-37 0 -75 -11 -119 -53l-109 91c62 65 153 93 239 93zM228 110c54 0 100 35 103 84h-114c-16 0 -29 -3 -38 -9c-10 -7 -15 -17 -15 -29c0 -25 21 -46 64 -46z" />
    <glyph glyph-name="uni1EB3" unicode="&#x1eb3;" horiz-adv-x="523" 
d="M266 804c0 26 -34 26 -71 26h-16v92h16c106 0 176 -38 176 -107c0 -79 -85 -93 -143 -101l-17 61c28 4 55 5 55 29zM255 563c-112 0 -159 48 -159 134h106c0 -33 27 -47 53 -47c28 0 53 16 53 47h106c0 -92 -53 -134 -159 -134zM257 504c140 0 224 -74 224 -191v-313
h-138l-10 49c-40 -53 -93 -60 -129 -60c-111 0 -191 69 -191 170c0 57 26 98 68 121c31 17 70 25 114 25h136v8c0 35 -30 60 -85 60c-37 0 -75 -11 -119 -53l-109 91c62 65 153 93 239 93zM228 110c54 0 100 35 103 84h-114c-16 0 -29 -3 -38 -9c-10 -7 -15 -17 -15 -29
c0 -25 21 -46 64 -46z" />
    <glyph glyph-name="uni1EB5" unicode="&#x1eb5;" horiz-adv-x="523" 
d="M190 811c-13 0 -21 -20 -21 -60h-86c0 97 44 152 114 152c65 0 95 -60 119 -60c11 0 20 19 20 58h90c0 -98 -43 -149 -112 -149c-75 0 -97 59 -124 59zM255 650c28 0 53 16 53 47h106c0 -92 -53 -134 -159 -134c-112 0 -159 48 -159 134h106c0 -33 27 -47 53 -47z
M257 504c140 0 224 -74 224 -191v-313h-138l-10 49c-40 -53 -93 -60 -129 -60c-111 0 -191 69 -191 170c0 57 26 98 68 121c31 17 70 25 114 25h136v8c0 35 -30 60 -85 60c-37 0 -75 -11 -119 -53l-109 91c62 65 153 93 239 93zM228 110c54 0 100 35 103 84h-114
c-16 0 -29 -3 -38 -9c-10 -7 -15 -17 -15 -29c0 -25 21 -46 64 -46z" />
    <glyph glyph-name="uni01CE" unicode="&#x1ce;" horiz-adv-x="523" 
d="M415 697l-160 -171l-160 171h115l45 -50l46 50h114zM257 504c140 0 224 -74 224 -191v-313h-138l-10 49c-40 -53 -93 -60 -129 -60c-111 0 -191 69 -191 170c0 57 26 98 68 121c31 17 70 25 114 25h136v8c0 35 -30 60 -85 60c-37 0 -75 -11 -119 -53l-109 91
c62 65 153 93 239 93zM228 110c54 0 100 35 103 84h-114c-16 0 -29 -3 -38 -9c-10 -7 -15 -17 -15 -29c0 -25 21 -46 64 -46z" />
    <glyph glyph-name="acircumflex" unicode="&#xe2;" horiz-adv-x="523" 
d="M255 593l-46 -56h-114l160 183l160 -183h-114zM257 504c140 0 224 -74 224 -191v-313h-138l-10 49c-40 -53 -93 -60 -129 -60c-111 0 -191 69 -191 170c0 57 26 98 68 121c31 17 70 25 114 25h136v8c0 35 -30 60 -85 60c-37 0 -75 -11 -119 -53l-109 91
c62 65 153 93 239 93zM228 110c54 0 100 35 103 84h-114c-16 0 -29 -3 -38 -9c-10 -7 -15 -17 -15 -29c0 -25 21 -46 64 -46z" />
    <glyph glyph-name="uni1EA5" unicode="&#x1ea5;" horiz-adv-x="523" 
d="M475 884l-166 -143h-109l113 143h162zM255 593l-46 -56h-114l160 183l160 -183h-114zM257 504c140 0 224 -74 224 -191v-313h-138l-10 49c-40 -53 -93 -60 -129 -60c-111 0 -191 69 -191 170c0 57 26 98 68 121c31 17 70 25 114 25h136v8c0 35 -30 60 -85 60
c-37 0 -75 -11 -119 -53l-109 91c62 65 153 93 239 93zM228 110c54 0 100 35 103 84h-114c-16 0 -29 -3 -38 -9c-10 -7 -15 -17 -15 -29c0 -25 21 -46 64 -46z" />
    <glyph glyph-name="uni1EAD" unicode="&#x1ead;" horiz-adv-x="523" 
d="M255 593l-46 -56h-114l160 183l160 -183h-114zM257 504c140 0 224 -74 224 -191v-313h-138l-10 49c-40 -53 -93 -60 -129 -60c-111 0 -191 69 -191 170c0 57 26 98 68 121c31 17 70 25 114 25h136v8c0 35 -30 60 -85 60c-37 0 -75 -11 -119 -53l-109 91
c62 65 153 93 239 93zM228 110c54 0 100 35 103 84h-114c-16 0 -29 -3 -38 -9c-10 -7 -15 -17 -15 -29c0 -25 21 -46 64 -46zM178 -173v117h154v-117h-154z" />
    <glyph glyph-name="uni1EA7" unicode="&#x1ea7;" horiz-adv-x="523" 
d="M310 741h-111l-153 143h160zM95 537l160 183l160 -183h-114l-46 56l-46 -56h-114zM257 504c140 0 224 -74 224 -191v-313h-138l-10 49c-40 -53 -93 -60 -129 -60c-111 0 -191 69 -191 170c0 57 26 98 68 121c31 17 70 25 114 25h136v8c0 35 -30 60 -85 60
c-37 0 -75 -11 -119 -53l-109 91c62 65 153 93 239 93zM228 110c54 0 100 35 103 84h-114c-16 0 -29 -3 -38 -9c-10 -7 -15 -17 -15 -29c0 -25 21 -46 64 -46z" />
    <glyph glyph-name="uni1EA9" unicode="&#x1ea9;" horiz-adv-x="523" 
d="M209 537h-114l141 161c-3 0 -5 -1 -8 -1l-17 61c28 4 55 5 55 29c0 26 -34 26 -71 26h-16v92h16c106 0 176 -38 176 -107c0 -62 -52 -84 -102 -94l146 -167h-114l-46 56zM257 504c140 0 224 -74 224 -191v-313h-138l-10 49c-40 -53 -93 -60 -129 -60
c-111 0 -191 69 -191 170c0 57 26 98 68 121c31 17 70 25 114 25h136v8c0 35 -30 60 -85 60c-37 0 -75 -11 -119 -53l-109 91c62 65 153 93 239 93zM228 110c54 0 100 35 103 84h-114c-16 0 -29 -3 -38 -9c-10 -7 -15 -17 -15 -29c0 -25 21 -46 64 -46z" />
    <glyph glyph-name="uni1EAB" unicode="&#x1eab;" horiz-adv-x="523" 
d="M190 794c-13 0 -21 -20 -21 -60h-86c0 97 44 152 114 152c65 0 95 -60 119 -60c11 0 20 19 20 58h90c0 -98 -43 -149 -112 -149c-75 0 -97 59 -124 59zM95 537l160 183l160 -183h-114l-46 56l-46 -56h-114zM257 504c140 0 224 -74 224 -191v-313h-138l-10 49
c-40 -53 -93 -60 -129 -60c-111 0 -191 69 -191 170c0 57 26 98 68 121c31 17 70 25 114 25h136v8c0 35 -30 60 -85 60c-37 0 -75 -11 -119 -53l-109 91c62 65 153 93 239 93zM228 110c54 0 100 35 103 84h-114c-16 0 -29 -3 -38 -9c-10 -7 -15 -17 -15 -29
c0 -25 21 -46 64 -46z" />
    <glyph glyph-name="adieresis" unicode="&#xe4;" horiz-adv-x="523" 
d="M210 697v-136h-114v136h114zM414 697v-136h-114v136h114zM257 504c140 0 224 -74 224 -191v-313h-138l-10 49c-40 -53 -93 -60 -129 -60c-111 0 -191 69 -191 170c0 57 26 98 68 121c31 17 70 25 114 25h136v8c0 35 -30 60 -85 60c-37 0 -75 -11 -119 -53l-109 91
c62 65 153 93 239 93zM228 110c54 0 100 35 103 84h-114c-16 0 -29 -3 -38 -9c-10 -7 -15 -17 -15 -29c0 -25 21 -46 64 -46z" />
    <glyph glyph-name="uni1EA1" unicode="&#x1ea1;" horiz-adv-x="523" 
d="M257 504c140 0 224 -74 224 -191v-313h-138l-10 49c-40 -53 -93 -60 -129 -60c-111 0 -191 69 -191 170c0 57 26 98 68 121c31 17 70 25 114 25h136v8c0 35 -30 60 -85 60c-37 0 -75 -11 -119 -53l-109 91c62 65 153 93 239 93zM228 110c54 0 100 35 103 84h-114
c-16 0 -29 -3 -38 -9c-10 -7 -15 -17 -15 -29c0 -25 21 -46 64 -46zM178 -173v117h154v-117h-154z" />
    <glyph glyph-name="agrave" unicode="&#xe0;" horiz-adv-x="523" 
d="M310 554h-111l-153 143h160zM257 504c140 0 224 -74 224 -191v-313h-138l-10 49c-40 -53 -93 -60 -129 -60c-111 0 -191 69 -191 170c0 57 26 98 68 121c31 17 70 25 114 25h136v8c0 35 -30 60 -85 60c-37 0 -75 -11 -119 -53l-109 91c62 65 153 93 239 93zM228 110
c54 0 100 35 103 84h-114c-16 0 -29 -3 -38 -9c-10 -7 -15 -17 -15 -29c0 -25 21 -46 64 -46z" />
    <glyph glyph-name="uni1EA3" unicode="&#x1ea3;" horiz-adv-x="523" 
d="M266 600c0 26 -34 26 -71 26h-16v92h16c106 0 176 -38 176 -107c0 -79 -85 -93 -143 -101l-17 61c28 4 55 5 55 29zM257 504c140 0 224 -74 224 -191v-313h-138l-10 49c-40 -53 -93 -60 -129 -60c-111 0 -191 69 -191 170c0 57 26 98 68 121c31 17 70 25 114 25h136v8
c0 35 -30 60 -85 60c-37 0 -75 -11 -119 -53l-109 91c62 65 153 93 239 93zM228 110c54 0 100 35 103 84h-114c-16 0 -29 -3 -38 -9c-10 -7 -15 -17 -15 -29c0 -25 21 -46 64 -46z" />
    <glyph glyph-name="amacron" unicode="&#x101;" horiz-adv-x="523" 
d="M394 633v-87h-278v87h278zM257 504c140 0 224 -74 224 -191v-313h-138l-10 49c-40 -53 -93 -60 -129 -60c-111 0 -191 69 -191 170c0 57 26 98 68 121c31 17 70 25 114 25h136v8c0 35 -30 60 -85 60c-37 0 -75 -11 -119 -53l-109 91c62 65 153 93 239 93zM228 110
c54 0 100 35 103 84h-114c-16 0 -29 -3 -38 -9c-10 -7 -15 -17 -15 -29c0 -25 21 -46 64 -46z" />
    <glyph glyph-name="aogonek" unicode="&#x105;" horiz-adv-x="523" 
d="M451 -107l78 -51c-23 -37 -57 -69 -117 -69c-72 0 -125 45 -125 111c0 67 50 102 76 116h-20l-10 49c-40 -53 -93 -60 -129 -60c-111 0 -191 69 -191 170c0 57 26 98 68 121c31 17 70 25 114 25h136v8c0 35 -30 60 -85 60c-37 0 -75 -11 -119 -53l-109 91
c62 65 153 93 239 93c140 0 224 -74 224 -191v-313c-19 -5 -105 -46 -105 -100c0 -28 15 -35 32 -35c21 0 34 11 43 28zM228 110c54 0 100 35 103 84h-114c-16 0 -29 -3 -38 -9c-10 -7 -15 -17 -15 -29c0 -25 21 -46 64 -46z" />
    <glyph glyph-name="aring" unicode="&#xe5;" horiz-adv-x="523" 
d="M255 520c-70 0 -124 59 -124 124c0 68 55 124 124 124c66 0 124 -54 124 -124c0 -69 -56 -124 -124 -124zM255 688c-28 0 -43 -18 -43 -42c0 -27 18 -46 43 -46c27 0 44 19 44 46c0 25 -15 42 -44 42zM257 504c140 0 224 -74 224 -191v-313h-138l-10 49
c-40 -53 -93 -60 -129 -60c-111 0 -191 69 -191 170c0 57 26 98 68 121c31 17 70 25 114 25h136v8c0 35 -30 60 -85 60c-37 0 -75 -11 -119 -53l-109 91c62 65 153 93 239 93zM228 110c54 0 100 35 103 84h-114c-16 0 -29 -3 -38 -9c-10 -7 -15 -17 -15 -29
c0 -25 21 -46 64 -46z" />
    <glyph glyph-name="atilde" unicode="&#xe3;" horiz-adv-x="523" 
d="M190 607c-13 0 -21 -20 -21 -60h-86c0 97 44 152 114 152c65 0 95 -60 119 -60c11 0 20 19 20 58h90c0 -98 -43 -149 -112 -149c-75 0 -97 59 -124 59zM257 504c140 0 224 -74 224 -191v-313h-138l-10 49c-40 -53 -93 -60 -129 -60c-111 0 -191 69 -191 170
c0 57 26 98 68 121c31 17 70 25 114 25h136v8c0 35 -30 60 -85 60c-37 0 -75 -11 -119 -53l-109 91c62 65 153 93 239 93zM228 110c54 0 100 35 103 84h-114c-16 0 -29 -3 -38 -9c-10 -7 -15 -17 -15 -29c0 -25 21 -46 64 -46z" />
    <glyph glyph-name="ae" unicode="&#xe6;" horiz-adv-x="801" 
d="M783 254c0 -19 -1 -39 -3 -60h-308c8 -39 24 -66 83 -66c46 0 81 16 106 45l105 -92c-66 -78 -131 -92 -214 -92c-75 0 -127 22 -166 70h-16c-56 -54 -105 -70 -167 -70c-126 0 -192 71 -192 165c0 160 191 145 230 145h91v14c0 37 -32 60 -82 60c-32 0 -80 -10 -118 -53
l-109 91c70 67 148 93 243 93c70 0 125 -14 161 -37c41 22 82 31 132 31c161 0 224 -95 224 -244zM470 303h175c0 18 -5 36 -18 48c-14 14 -37 22 -68 22c-70 0 -89 -42 -89 -70zM222 117c70 0 107 40 110 74h-82c-70 0 -84 -24 -84 -40c0 -19 18 -34 56 -34z" />
    <glyph glyph-name="b" unicode="b" horiz-adv-x="557" 
d="M340 504c108 0 198 -92 198 -257c0 -148 -73 -258 -201 -258c-43 0 -95 13 -129 48v-37h-151v697h151v-243c30 30 81 50 132 50zM297 130c64 0 91 37 91 115c0 77 -25 121 -93 121c-78 0 -101 -60 -101 -121c0 -63 26 -115 103 -115z" />
    <glyph glyph-name="c" unicode="c" horiz-adv-x="482" 
d="M261 -11c-172 0 -249 130 -249 256c0 130 80 259 248 259c104 0 183 -49 220 -150l-142 -57c-7 46 -38 76 -78 76c-70 0 -93 -64 -93 -128c0 -63 21 -125 92 -125c39 0 71 29 80 73l136 -53c-33 -93 -111 -151 -214 -151z" />
    <glyph glyph-name="cacute" unicode="&#x107;" horiz-adv-x="482" 
d="M187 554l113 143h162l-166 -143h-109zM261 -11c-172 0 -249 130 -249 256c0 130 80 259 248 259c104 0 183 -49 220 -150l-142 -57c-7 46 -38 76 -78 76c-70 0 -93 -64 -93 -128c0 -63 21 -125 92 -125c39 0 71 29 80 73l136 -53c-33 -93 -111 -151 -214 -151z" />
    <glyph glyph-name="ccaron" unicode="&#x10d;" horiz-adv-x="482" 
d="M242 526l-160 171h115l45 -50l46 50h114zM261 -11c-172 0 -249 130 -249 256c0 130 80 259 248 259c104 0 183 -49 220 -150l-142 -57c-7 46 -38 76 -78 76c-70 0 -93 -64 -93 -128c0 -63 21 -125 92 -125c39 0 71 29 80 73l136 -53c-33 -93 -111 -151 -214 -151z" />
    <glyph glyph-name="ccedilla" unicode="&#xe7;" horiz-adv-x="482" 
d="M259 120c39 0 71 29 80 73l136 -53c-31 -89 -104 -146 -200 -151l-27 -29c19 -4 35 -12 47 -21c24 -19 34 -47 34 -77c0 -68 -50 -122 -124 -122c-14 0 -46 2 -79 23l46 73c13 -7 26 -11 37 -11c19 0 33 10 33 31c0 23 -15 35 -37 41c-21 6 -44 6 -71 6l61 93
c-126 29 -183 141 -183 249c0 130 80 259 248 259c104 0 183 -49 220 -150l-142 -57c-7 46 -38 76 -78 76c-70 0 -93 -64 -93 -128c0 -63 21 -125 92 -125z" />
    <glyph glyph-name="cdotaccent" unicode="&#x10b;" horiz-adv-x="482" 
d="M165 561v136h154v-136h-154zM261 -11c-172 0 -249 130 -249 256c0 130 80 259 248 259c104 0 183 -49 220 -150l-142 -57c-7 46 -38 76 -78 76c-70 0 -93 -64 -93 -128c0 -63 21 -125 92 -125c39 0 71 29 80 73l136 -53c-33 -93 -111 -151 -214 -151z" />
    <glyph glyph-name="d" unicode="d" horiz-adv-x="556" 
d="M349 697h150v-697h-150v37c-35 -35 -87 -48 -130 -48c-128 0 -201 110 -201 258c0 165 90 257 201 257c49 0 99 -20 130 -51v244zM260 130c77 0 103 52 103 115c0 60 -23 121 -102 121c-58 0 -92 -45 -92 -121c0 -78 36 -115 91 -115z" />
    <glyph glyph-name="eth" unicode="&#xf0;" horiz-adv-x="564" 
d="M547 612l-53 -12c35 -59 49 -133 49 -220c0 -248 -116 -386 -296 -386c-152 0 -238 98 -238 229c0 161 129 269 266 269c50 0 111 -14 142 -61c0 50 -14 100 -46 139l-188 -44l-15 60l142 33c-28 14 -61 22 -100 24l12 100c105 -10 180 -41 230 -90l81 19zM256 123
c92 0 151 88 143 162c-5 50 -41 84 -108 84c-106 0 -141 -86 -141 -144c0 -70 50 -102 106 -102z" />
    <glyph glyph-name="dcaron" unicode="&#x10f;" horiz-adv-x="556" 
d="M349 453v244h150v-697h-150v37c-35 -35 -87 -48 -130 -48c-128 0 -201 110 -201 258c0 165 90 257 201 257c49 0 99 -20 130 -51zM564 697h158l-126 -234h-87zM260 130c77 0 103 52 103 115c0 60 -23 121 -102 121c-58 0 -92 -45 -92 -121c0 -78 36 -115 91 -115z" />
    <glyph glyph-name="dcroat" unicode="&#x111;" horiz-adv-x="556" 
d="M586 639v-100h-87v-539h-150v37c-35 -35 -87 -48 -130 -48c-128 0 -201 110 -201 258c0 165 90 257 201 257c49 0 99 -20 130 -51v86h-118v100h118v58h150v-58h87zM260 130c77 0 103 52 103 115c0 60 -23 121 -102 121c-58 0 -92 -45 -92 -121c0 -78 36 -115 91 -115z
" />
    <glyph glyph-name="e" unicode="e" horiz-adv-x="507" 
d="M492 242c0 -14 -1 -27 -3 -48h-324c6 -39 36 -69 101 -69c37 0 76 14 104 48l104 -92c-52 -59 -122 -92 -209 -92c-182 0 -251 128 -251 255c0 123 67 260 243 260c154 0 235 -110 235 -262zM163 305h185c-2 46 -43 74 -93 74c-63 0 -86 -42 -92 -74zM346 286l1 1z" />
    <glyph glyph-name="eacute" unicode="&#xe9;" horiz-adv-x="507" 
d="M478 697l-166 -143h-109l113 143h162zM492 242c0 -14 -1 -27 -3 -48h-324c6 -39 36 -69 101 -69c37 0 76 14 104 48l104 -92c-52 -59 -122 -92 -209 -92c-182 0 -251 128 -251 255c0 123 67 260 243 260c154 0 235 -110 235 -262zM163 305h185c-2 46 -43 74 -93 74
c-63 0 -86 -42 -92 -74zM346 286l1 1z" />
    <glyph glyph-name="ecaron" unicode="&#x11b;" horiz-adv-x="507" 
d="M418 697l-160 -171l-160 171h115l45 -50l46 50h114zM492 242c0 -14 -1 -27 -3 -48h-324c6 -39 36 -69 101 -69c37 0 76 14 104 48l104 -92c-52 -59 -122 -92 -209 -92c-182 0 -251 128 -251 255c0 123 67 260 243 260c154 0 235 -110 235 -262zM163 305h185
c-2 46 -43 74 -93 74c-63 0 -86 -42 -92 -74zM346 286l1 1z" />
    <glyph glyph-name="ecircumflex" unicode="&#xea;" horiz-adv-x="507" 
d="M258 593l-46 -56h-114l160 183l160 -183h-114zM492 242c0 -14 -1 -27 -3 -48h-324c6 -39 36 -69 101 -69c37 0 76 14 104 48l104 -92c-52 -59 -122 -92 -209 -92c-182 0 -251 128 -251 255c0 123 67 260 243 260c154 0 235 -110 235 -262zM163 305h185
c-2 46 -43 74 -93 74c-63 0 -86 -42 -92 -74zM346 286l1 1z" />
    <glyph glyph-name="uni1EBF" unicode="&#x1ebf;" horiz-adv-x="507" 
d="M478 884l-166 -143h-109l113 143h162zM258 593l-46 -56h-114l160 183l160 -183h-114zM492 242c0 -14 -1 -27 -3 -48h-324c6 -39 36 -69 101 -69c37 0 76 14 104 48l104 -92c-52 -59 -122 -92 -209 -92c-182 0 -251 128 -251 255c0 123 67 260 243 260
c154 0 235 -110 235 -262zM163 305h185c-2 46 -43 74 -93 74c-63 0 -86 -42 -92 -74zM346 286l1 1z" />
    <glyph glyph-name="uni1EC7" unicode="&#x1ec7;" horiz-adv-x="507" 
d="M258 593l-46 -56h-114l160 183l160 -183h-114zM492 242c0 -14 -1 -27 -3 -48h-324c6 -39 36 -69 101 -69c37 0 76 14 104 48l104 -92c-52 -59 -122 -92 -209 -92c-182 0 -251 128 -251 255c0 123 67 260 243 260c154 0 235 -110 235 -262zM163 305h185
c-2 46 -43 74 -93 74c-63 0 -86 -42 -92 -74zM346 286l1 1zM188 -173v117h154v-117h-154z" />
    <glyph glyph-name="uni1EC1" unicode="&#x1ec1;" horiz-adv-x="507" 
d="M313 741h-111l-153 143h160zM98 537l160 183l160 -183h-114l-46 56l-46 -56h-114zM492 242c0 -14 -1 -27 -3 -48h-324c6 -39 36 -69 101 -69c37 0 76 14 104 48l104 -92c-52 -59 -122 -92 -209 -92c-182 0 -251 128 -251 255c0 123 67 260 243 260
c154 0 235 -110 235 -262zM163 305h185c-2 46 -43 74 -93 74c-63 0 -86 -42 -92 -74zM346 286l1 1z" />
    <glyph glyph-name="uni1EC3" unicode="&#x1ec3;" horiz-adv-x="507" 
d="M212 537h-114l141 161c-3 0 -5 -1 -8 -1l-17 61c28 4 55 5 55 29c0 26 -34 26 -71 26h-16v92h16c106 0 176 -38 176 -107c0 -62 -52 -84 -102 -94l146 -167h-114l-46 56zM492 242c0 -14 -1 -27 -3 -48h-324c6 -39 36 -69 101 -69c37 0 76 14 104 48l104 -92
c-52 -59 -122 -92 -209 -92c-182 0 -251 128 -251 255c0 123 67 260 243 260c154 0 235 -110 235 -262zM163 305h185c-2 46 -43 74 -93 74c-63 0 -86 -42 -92 -74zM346 286l1 1z" />
    <glyph glyph-name="uni1EC5" unicode="&#x1ec5;" horiz-adv-x="507" 
d="M193 794c-13 0 -21 -20 -21 -60h-86c0 97 44 152 114 152c65 0 95 -60 119 -60c11 0 20 19 20 58h90c0 -98 -43 -149 -112 -149c-75 0 -97 59 -124 59zM98 537l160 183l160 -183h-114l-46 56l-46 -56h-114zM492 242c0 -14 -1 -27 -3 -48h-324c6 -39 36 -69 101 -69
c37 0 76 14 104 48l104 -92c-52 -59 -122 -92 -209 -92c-182 0 -251 128 -251 255c0 123 67 260 243 260c154 0 235 -110 235 -262zM163 305h185c-2 46 -43 74 -93 74c-63 0 -86 -42 -92 -74zM346 286l1 1z" />
    <glyph glyph-name="edieresis" unicode="&#xeb;" horiz-adv-x="507" 
d="M213 697v-136h-114v136h114zM417 697v-136h-114v136h114zM492 242c0 -14 -1 -27 -3 -48h-324c6 -39 36 -69 101 -69c37 0 76 14 104 48l104 -92c-52 -59 -122 -92 -209 -92c-182 0 -251 128 -251 255c0 123 67 260 243 260c154 0 235 -110 235 -262zM163 305h185
c-2 46 -43 74 -93 74c-63 0 -86 -42 -92 -74zM346 286l1 1z" />
    <glyph glyph-name="edotaccent" unicode="&#x117;" horiz-adv-x="507" 
d="M335 697v-136h-154v136h154zM492 242c0 -14 -1 -27 -3 -48h-324c6 -39 36 -69 101 -69c37 0 76 14 104 48l104 -92c-52 -59 -122 -92 -209 -92c-182 0 -251 128 -251 255c0 123 67 260 243 260c154 0 235 -110 235 -262zM163 305h185c-2 46 -43 74 -93 74
c-63 0 -86 -42 -92 -74zM346 286l1 1z" />
    <glyph glyph-name="uni1EB9" unicode="&#x1eb9;" horiz-adv-x="507" 
d="M492 242c0 -14 -1 -27 -3 -48h-324c6 -39 36 -69 101 -69c37 0 76 14 104 48l104 -92c-52 -59 -122 -92 -209 -92c-182 0 -251 128 -251 255c0 123 67 260 243 260c154 0 235 -110 235 -262zM163 305h185c-2 46 -43 74 -93 74c-63 0 -86 -42 -92 -74zM346 286l1 1z
M188 -173v117h154v-117h-154z" />
    <glyph glyph-name="egrave" unicode="&#xe8;" horiz-adv-x="507" 
d="M313 554h-111l-153 143h160zM492 242c0 -14 -1 -27 -3 -48h-324c6 -39 36 -69 101 -69c37 0 76 14 104 48l104 -92c-52 -59 -122 -92 -209 -92c-182 0 -251 128 -251 255c0 123 67 260 243 260c154 0 235 -110 235 -262zM163 305h185c-2 46 -43 74 -93 74
c-63 0 -86 -42 -92 -74zM346 286l1 1z" />
    <glyph glyph-name="uni1EBB" unicode="&#x1ebb;" horiz-adv-x="507" 
d="M269 600c0 26 -34 26 -71 26h-16v92h16c106 0 176 -38 176 -107c0 -79 -85 -93 -143 -101l-17 61c28 4 55 5 55 29zM492 242c0 -14 -1 -27 -3 -48h-324c6 -39 36 -69 101 -69c37 0 76 14 104 48l104 -92c-52 -59 -122 -92 -209 -92c-182 0 -251 128 -251 255
c0 123 67 260 243 260c154 0 235 -110 235 -262zM163 305h185c-2 46 -43 74 -93 74c-63 0 -86 -42 -92 -74zM346 286l1 1z" />
    <glyph glyph-name="emacron" unicode="&#x113;" horiz-adv-x="507" 
d="M397 633v-87h-278v87h278zM492 242c0 -14 -1 -27 -3 -48h-324c6 -39 36 -69 101 -69c37 0 76 14 104 48l104 -92c-52 -59 -122 -92 -209 -92c-182 0 -251 128 -251 255c0 123 67 260 243 260c154 0 235 -110 235 -262zM163 305h185c-2 46 -43 74 -93 74
c-63 0 -86 -42 -92 -74zM346 286l1 1z" />
    <glyph glyph-name="eogonek" unicode="&#x119;" horiz-adv-x="507" 
d="M492 242c0 -14 -1 -27 -3 -48h-324c6 -39 36 -69 101 -69c37 0 76 14 104 48l104 -92c-32 -37 -72 -63 -117 -78c-33 -16 -81 -50 -81 -90c0 -28 15 -35 32 -35c21 0 34 11 43 28l78 -51c-23 -37 -57 -69 -117 -69c-72 0 -125 45 -125 111c0 44 21 74 44 94
c-157 15 -217 134 -217 253c0 123 67 260 243 260c154 0 235 -110 235 -262zM163 305h185c-2 46 -43 74 -93 74c-63 0 -86 -42 -92 -74zM346 286l1 1z" />
    <glyph glyph-name="uni1EBD" unicode="&#x1ebd;" horiz-adv-x="507" 
d="M193 607c-13 0 -21 -20 -21 -60h-86c0 97 44 152 114 152c65 0 95 -60 119 -60c11 0 20 19 20 58h90c0 -98 -43 -149 -112 -149c-75 0 -97 59 -124 59zM492 242c0 -14 -1 -27 -3 -48h-324c6 -39 36 -69 101 -69c37 0 76 14 104 48l104 -92c-52 -59 -122 -92 -209 -92
c-182 0 -251 128 -251 255c0 123 67 260 243 260c154 0 235 -110 235 -262zM163 305h185c-2 46 -43 74 -93 74c-63 0 -86 -42 -92 -74zM346 286l1 1z" />
    <glyph glyph-name="f" unicode="f" horiz-adv-x="327" 
d="M86 0v376h-88v117h89v44c0 137 77 171 164 171c44 0 73 -9 103 -22l-48 -115c-12 6 -25 12 -38 12c-25 0 -31 -21 -31 -47v-43h98v-117h-98v-376h-151z" />
    <glyph glyph-name="g" unicode="g" horiz-adv-x="508" 
d="M254 84c143 -17 239 -33 239 -143c0 -112 -99 -166 -234 -166c-143 0 -242 61 -242 157c0 9 1 21 4 33l73 27c-37 21 -63 55 -63 110c0 42 15 74 41 100c-24 30 -38 69 -38 112c0 115 98 190 211 190c39 0 77 -9 110 -26l80 68l79 -95l-74 -59c11 -25 18 -52 18 -83
c0 -110 -84 -182 -208 -182c-34 0 -65 5 -93 16c-3 -6 -4 -11 -4 -17c0 -29 39 -35 101 -42zM247 379c-40 0 -62 -27 -62 -65c0 -37 17 -69 62 -69c44 0 61 32 61 69c0 39 -22 65 -61 65zM266 -116c60 0 77 16 77 33c0 33 -61 35 -116 41c-9 1 -19 2 -29 4l-28 -28
c-1 -2 -1 -5 -1 -7c0 -25 33 -43 97 -43z" />
    <glyph glyph-name="gbreve" unicode="&#x11f;" horiz-adv-x="508" 
d="M251 563c-112 0 -159 48 -159 134h106c0 -33 27 -47 53 -47c28 0 53 16 53 47h106c0 -92 -53 -134 -159 -134zM254 84c143 -17 239 -33 239 -143c0 -112 -99 -166 -234 -166c-143 0 -242 61 -242 157c0 9 1 21 4 33l73 27c-37 21 -63 55 -63 110c0 42 15 74 41 100
c-24 30 -38 69 -38 112c0 115 98 190 211 190c39 0 77 -9 110 -26l80 68l79 -95l-74 -59c11 -25 18 -52 18 -83c0 -110 -84 -182 -208 -182c-34 0 -65 5 -93 16c-3 -6 -4 -11 -4 -17c0 -29 39 -35 101 -42zM247 379c-40 0 -62 -27 -62 -65c0 -37 17 -69 62 -69
c44 0 61 32 61 69c0 39 -22 65 -61 65zM266 -116c60 0 77 16 77 33c0 33 -61 35 -116 41c-9 1 -19 2 -29 4l-28 -28c-1 -2 -1 -5 -1 -7c0 -25 33 -43 97 -43z" />
    <glyph glyph-name="uni0123" unicode="&#x123;" horiz-adv-x="508" 
d="M357 710l-55 -160h-156l125 160h86zM254 84c143 -17 239 -33 239 -143c0 -112 -99 -166 -234 -166c-143 0 -242 61 -242 157c0 9 1 21 4 33l73 27c-37 21 -63 55 -63 110c0 42 15 74 41 100c-24 30 -38 69 -38 112c0 115 98 190 211 190c39 0 77 -9 110 -26l80 68l79 -95
l-74 -59c11 -25 18 -52 18 -83c0 -110 -84 -182 -208 -182c-34 0 -65 5 -93 16c-3 -6 -4 -11 -4 -17c0 -29 39 -35 101 -42zM247 379c-40 0 -62 -27 -62 -65c0 -37 17 -69 62 -69c44 0 61 32 61 69c0 39 -22 65 -61 65zM266 -116c60 0 77 16 77 33c0 33 -61 35 -116 41
c-9 1 -19 2 -29 4l-28 -28c-1 -2 -1 -5 -1 -7c0 -25 33 -43 97 -43z" />
    <glyph glyph-name="gdotaccent" unicode="&#x121;" horiz-adv-x="508" 
d="M328 697v-136h-154v136h154zM254 84c143 -17 239 -33 239 -143c0 -112 -99 -166 -234 -166c-143 0 -242 61 -242 157c0 9 1 21 4 33l73 27c-37 21 -63 55 -63 110c0 42 15 74 41 100c-24 30 -38 69 -38 112c0 115 98 190 211 190c39 0 77 -9 110 -26l80 68l79 -95
l-74 -59c11 -25 18 -52 18 -83c0 -110 -84 -182 -208 -182c-34 0 -65 5 -93 16c-3 -6 -4 -11 -4 -17c0 -29 39 -35 101 -42zM247 379c-40 0 -62 -27 -62 -65c0 -37 17 -69 62 -69c44 0 61 32 61 69c0 39 -22 65 -61 65zM266 -116c60 0 77 16 77 33c0 33 -61 35 -116 41
c-9 1 -19 2 -29 4l-28 -28c-1 -2 -1 -5 -1 -7c0 -25 33 -43 97 -43z" />
    <glyph glyph-name="h" unicode="h" horiz-adv-x="575" 
d="M348 504c113 0 182 -66 182 -176v-328h-151v290c0 56 -26 83 -80 83c-79 0 -91 -69 -91 -194v-179h-151v697h151v-250c33 39 78 57 140 57z" />
    <glyph glyph-name="hbar" unicode="&#x127;" horiz-adv-x="575" 
d="M348 504c113 0 182 -66 182 -176v-328h-151v290c0 56 -26 83 -80 83c-79 0 -91 -69 -91 -194v-179h-151v539h-47v100h47v58h151v-58h157v-100h-157v-92c33 39 78 57 140 57z" />
    <glyph glyph-name="i" unicode="i" horiz-adv-x="263" 
d="M55 561v136h154v-136h-154zM56 0v493h151v-493h-151z" />
    <glyph glyph-name="dotlessi" unicode="&#x131;" horiz-adv-x="263" 
d="M56 0v493h151v-493h-151z" />
    <glyph glyph-name="iacute" unicode="&#xed;" horiz-adv-x="263" 
d="M77 554l113 143h162l-166 -143h-109zM56 0v493h151v-493h-151z" />
    <glyph glyph-name="uni01D0" unicode="&#x1d0;" horiz-adv-x="263" 
d="M132 526l-160 171h115l45 -50l46 50h114zM56 0v493h151v-493h-151z" />
    <glyph glyph-name="icircumflex" unicode="&#xee;" horiz-adv-x="263" 
d="M-28 537l160 183l160 -183h-114l-46 56l-46 -56h-114zM56 0v493h151v-493h-151z" />
    <glyph glyph-name="idieresis" unicode="&#xef;" horiz-adv-x="263" 
d="M-27 561v136h114v-136h-114zM177 561v136h114v-136h-114zM56 0v493h151v-493h-151z" />
    <glyph glyph-name="i.loclTRK" horiz-adv-x="263" 
d="M55 561v136h154v-136h-154zM56 0v493h151v-493h-151z" />
    <glyph glyph-name="uni1ECB" unicode="&#x1ecb;" horiz-adv-x="263" 
d="M55 561v136h154v-136h-154zM56 0v493h151v-493h-151zM55 -173v117h154v-117h-154z" />
    <glyph glyph-name="igrave" unicode="&#xec;" horiz-adv-x="263" 
d="M76 554l-153 143h160l104 -143h-111zM56 0v493h151v-493h-151z" />
    <glyph glyph-name="uni1EC9" unicode="&#x1ec9;" horiz-adv-x="263" 
d="M105 510l-17 61c28 4 55 5 55 29c0 26 -34 26 -71 26h-16v92h16c106 0 176 -38 176 -107c0 -79 -85 -93 -143 -101zM56 0v493h151v-493h-151z" />
    <glyph glyph-name="imacron" unicode="&#x12b;" horiz-adv-x="263" 
d="M-7 546v87h278v-87h-278zM56 0v493h151v-493h-151z" />
    <glyph glyph-name="iogonek" unicode="&#x12f;" horiz-adv-x="263" 
d="M209 697v-136h-154v136h154zM177 -107l78 -51c-23 -37 -57 -69 -117 -69c-72 0 -125 45 -125 111c0 67 50 102 76 116h-33v493h151v-493c-19 -5 -105 -46 -105 -100c0 -28 15 -35 32 -35c21 0 34 11 43 28z" />
    <glyph glyph-name="itilde" unicode="&#x129;" horiz-adv-x="263" 
d="M191 548c-75 0 -97 59 -124 59c-13 0 -21 -20 -21 -60h-86c0 97 44 152 114 152c65 0 95 -60 119 -60c11 0 20 19 20 58h90c0 -98 -43 -149 -112 -149zM56 0v493h151v-493h-151z" />
    <glyph glyph-name="j" unicode="j" horiz-adv-x="265" 
d="M56 561v136h154v-136h-154zM75 -215c-29 0 -65 6 -95 16l-1 120c15 -3 29 -5 40 -5c24 0 38 4 38 38v539h151v-571c0 -94 -55 -137 -133 -137z" />
    <glyph glyph-name="uni0237" unicode="&#x237;" horiz-adv-x="265" 
d="M75 -215c-29 0 -65 6 -95 16l-1 120c15 -3 29 -5 40 -5c24 0 38 4 38 38v539h151v-571c0 -94 -55 -137 -133 -137z" />
    <glyph glyph-name="k" unicode="k" horiz-adv-x="550" 
d="M57 0v697h151v-367l142 163h201l-180 -186l197 -307h-179l-128 206l-53 -63v-143h-151z" />
    <glyph glyph-name="uni0137" unicode="&#x137;" horiz-adv-x="550" 
d="M57 0v697h151v-367l142 163h201l-180 -186l197 -307h-179l-128 206l-53 -63v-143h-151zM165 -229l54 178h157l-125 -178h-86z" />
    <glyph glyph-name="kgreenlandic" unicode="&#x138;" horiz-adv-x="549" 
d="M56 0v493h151v-170l148 170h195l-177 -185l194 -308h-179l-128 206l-53 -63v-143h-151z" />
    <glyph glyph-name="l" unicode="l" horiz-adv-x="277" 
d="M179 -11c-72 0 -129 41 -129 136v572h151v-552c0 -23 10 -26 29 -26c8 0 20 1 32 4v-118c-31 -12 -61 -16 -83 -16z" />
    <glyph glyph-name="lacute" unicode="&#x13a;" horiz-adv-x="277" 
d="M71 758l113 143h162l-166 -143h-109zM179 -11c-72 0 -129 41 -129 136v572h151v-552c0 -23 10 -26 29 -26c8 0 20 1 32 4v-118c-31 -12 -61 -16 -83 -16z" />
    <glyph glyph-name="lcaron" unicode="&#x13e;" horiz-adv-x="277" 
d="M179 -11c-72 0 -129 41 -129 136v572h151v-552c0 -23 10 -26 29 -26c8 0 20 1 32 4v-118c-31 -12 -61 -16 -83 -16zM217 463l55 234h158l-126 -234h-87z" />
    <glyph glyph-name="uni013C" unicode="&#x13c;" horiz-adv-x="277" 
d="M179 -11c-72 0 -129 41 -129 136v572h151v-552c0 -23 10 -26 29 -26c8 0 20 1 32 4v-118c-31 -12 -61 -16 -83 -16zM6 -229l54 178h157l-125 -178h-86z" />
    <glyph glyph-name="lslash" unicode="&#x142;" horiz-adv-x="277" 
d="M230 119c8 0 20 1 32 4v-118c-31 -12 -61 -16 -83 -16c-72 0 -129 41 -129 136v99l-41 -33v155l41 32v319h151v-199l48 38v-153l-48 -38v-200c0 -23 10 -26 29 -26z" />
    <glyph glyph-name="m" unicode="m" horiz-adv-x="850" 
d="M632 504c119 0 175 -97 175 -186v-318h-151v271c0 37 -8 102 -70 102c-101 0 -79 -121 -79 -214v-159h-150v274c0 12 7 99 -66 99c-104 0 -83 -121 -83 -214v-159h-151l-1 493h145v-64c33 59 85 75 130 75c50 0 111 -19 143 -98c43 81 101 98 158 98z" />
    <glyph glyph-name="n" unicode="n" horiz-adv-x="574" 
d="M347 504c114 0 182 -68 182 -176v-328h-151v272c0 38 0 101 -78 101c-93 0 -93 -89 -93 -143v-230h-151v493h151v-46c37 45 88 57 140 57z" />
    <glyph glyph-name="nacute" unicode="&#x144;" horiz-adv-x="574" 
d="M502 697l-166 -143h-109l113 143h162zM347 504c114 0 182 -68 182 -176v-328h-151v272c0 38 0 101 -78 101c-93 0 -93 -89 -93 -143v-230h-151v493h151v-46c37 45 88 57 140 57z" />
    <glyph glyph-name="napostrophe" unicode="&#x149;" horiz-adv-x="662" 
d="M18 697h175l-123 -276h-98zM435 504c114 0 182 -68 182 -176v-328h-151v272c0 38 0 101 -78 101c-93 0 -93 -89 -93 -143v-230h-151v493h151v-46c37 45 88 57 140 57z" />
    <glyph glyph-name="ncaron" unicode="&#x148;" horiz-adv-x="574" 
d="M442 697l-160 -171l-160 171h115l45 -50l46 50h114zM347 504c114 0 182 -68 182 -176v-328h-151v272c0 38 0 101 -78 101c-93 0 -93 -89 -93 -143v-230h-151v493h151v-46c37 45 88 57 140 57z" />
    <glyph glyph-name="uni0146" unicode="&#x146;" horiz-adv-x="574" 
d="M347 504c114 0 182 -68 182 -176v-328h-151v272c0 38 0 101 -78 101c-93 0 -93 -89 -93 -143v-230h-151v493h151v-46c37 45 88 57 140 57zM149 -229l54 178h157l-125 -178h-86z" />
    <glyph glyph-name="eng" unicode="&#x14b;" horiz-adv-x="574" 
d="M347 504c111 0 182 -63 182 -176v-406c0 -94 -54 -137 -127 -137c-27 0 -55 5 -85 16v120c16 -4 25 -5 33 -5c18 0 28 4 28 27v347c0 6 9 83 -80 83c-121 0 -91 -131 -91 -194v-179h-151v493h151v-46c34 41 84 57 140 57z" />
    <glyph glyph-name="ntilde" unicode="&#xf1;" horiz-adv-x="574" 
d="M217 607c-13 0 -21 -20 -21 -60h-86c0 97 44 152 114 152c65 0 95 -60 119 -60c11 0 20 19 20 58h90c0 -98 -43 -149 -112 -149c-75 0 -97 59 -124 59zM347 504c114 0 182 -68 182 -176v-328h-151v272c0 38 0 101 -78 101c-93 0 -93 -89 -93 -143v-230h-151v493h151v-46
c37 45 88 57 140 57z" />
    <glyph glyph-name="o" unicode="o" horiz-adv-x="529" 
d="M265 -11c-160 0 -254 123 -254 258s93 257 254 257c159 0 253 -121 253 -257c0 -135 -95 -258 -253 -258zM265 120c81 0 102 65 102 127s-20 126 -102 126s-103 -63 -103 -126c0 -60 20 -127 103 -127z" />
    <glyph glyph-name="oacute" unicode="&#xf3;" horiz-adv-x="529" 
d="M210 554l113 143h162l-166 -143h-109zM265 -11c-160 0 -254 123 -254 258s93 257 254 257c159 0 253 -121 253 -257c0 -135 -95 -258 -253 -258zM265 120c81 0 102 65 102 127s-20 126 -102 126s-103 -63 -103 -126c0 -60 20 -127 103 -127z" />
    <glyph glyph-name="uni01D2" unicode="&#x1d2;" horiz-adv-x="529" 
d="M265 526l-160 171h115l45 -50l46 50h114zM265 -11c-160 0 -254 123 -254 258s93 257 254 257c159 0 253 -121 253 -257c0 -135 -95 -258 -253 -258zM265 120c81 0 102 65 102 127s-20 126 -102 126s-103 -63 -103 -126c0 -60 20 -127 103 -127z" />
    <glyph glyph-name="ocircumflex" unicode="&#xf4;" horiz-adv-x="529" 
d="M105 537l160 183l160 -183h-114l-46 56l-46 -56h-114zM265 -11c-160 0 -254 123 -254 258s93 257 254 257c159 0 253 -121 253 -257c0 -135 -95 -258 -253 -258zM265 120c81 0 102 65 102 127s-20 126 -102 126s-103 -63 -103 -126c0 -60 20 -127 103 -127z" />
    <glyph glyph-name="uni1ED1" unicode="&#x1ed1;" horiz-adv-x="529" 
d="M210 741l113 143h162l-166 -143h-109zM105 537l160 183l160 -183h-114l-46 56l-46 -56h-114zM265 -11c-160 0 -254 123 -254 258s93 257 254 257c159 0 253 -121 253 -257c0 -135 -95 -258 -253 -258zM265 120c81 0 102 65 102 127s-20 126 -102 126s-103 -63 -103 -126
c0 -60 20 -127 103 -127z" />
    <glyph glyph-name="uni1ED9" unicode="&#x1ed9;" horiz-adv-x="529" 
d="M105 537l160 183l160 -183h-114l-46 56l-46 -56h-114zM265 -11c-160 0 -254 123 -254 258s93 257 254 257c159 0 253 -121 253 -257c0 -135 -95 -258 -253 -258zM265 120c81 0 102 65 102 127s-20 126 -102 126s-103 -63 -103 -126c0 -60 20 -127 103 -127zM188 -173v117
h154v-117h-154z" />
    <glyph glyph-name="uni1ED3" unicode="&#x1ed3;" horiz-adv-x="529" 
d="M209 741l-153 143h160l104 -143h-111zM105 537l160 183l160 -183h-114l-46 56l-46 -56h-114zM265 -11c-160 0 -254 123 -254 258s93 257 254 257c159 0 253 -121 253 -257c0 -135 -95 -258 -253 -258zM265 120c81 0 102 65 102 127s-20 126 -102 126s-103 -63 -103 -126
c0 -60 20 -127 103 -127z" />
    <glyph glyph-name="uni1ED5" unicode="&#x1ed5;" horiz-adv-x="529" 
d="M219 537h-114l141 161c-3 0 -5 -1 -8 -1l-17 61c28 4 55 5 55 29c0 26 -34 26 -71 26h-16v92h16c106 0 176 -38 176 -107c0 -62 -52 -84 -102 -94l146 -167h-114l-46 56zM265 504c159 0 253 -121 253 -257c0 -135 -95 -258 -253 -258c-160 0 -254 123 -254 258
s93 257 254 257zM265 120c81 0 102 65 102 127s-20 126 -102 126s-103 -63 -103 -126c0 -60 20 -127 103 -127z" />
    <glyph glyph-name="uni1ED7" unicode="&#x1ed7;" horiz-adv-x="529" 
d="M324 735c-75 0 -97 59 -124 59c-13 0 -21 -20 -21 -60h-86c0 97 44 152 114 152c65 0 95 -60 119 -60c11 0 20 19 20 58h90c0 -98 -43 -149 -112 -149zM105 537l160 183l160 -183h-114l-46 56l-46 -56h-114zM265 -11c-160 0 -254 123 -254 258s93 257 254 257
c159 0 253 -121 253 -257c0 -135 -95 -258 -253 -258zM265 120c81 0 102 65 102 127s-20 126 -102 126s-103 -63 -103 -126c0 -60 20 -127 103 -127z" />
    <glyph glyph-name="odieresis" unicode="&#xf6;" horiz-adv-x="529" 
d="M106 561v136h114v-136h-114zM310 561v136h114v-136h-114zM265 -11c-160 0 -254 123 -254 258s93 257 254 257c159 0 253 -121 253 -257c0 -135 -95 -258 -253 -258zM265 120c81 0 102 65 102 127s-20 126 -102 126s-103 -63 -103 -126c0 -60 20 -127 103 -127z" />
    <glyph glyph-name="uni1ECD" unicode="&#x1ecd;" horiz-adv-x="529" 
d="M265 -11c-160 0 -254 123 -254 258s93 257 254 257c159 0 253 -121 253 -257c0 -135 -95 -258 -253 -258zM265 120c81 0 102 65 102 127s-20 126 -102 126s-103 -63 -103 -126c0 -60 20 -127 103 -127zM188 -173v117h154v-117h-154z" />
    <glyph glyph-name="ograve" unicode="&#xf2;" horiz-adv-x="529" 
d="M209 554l-153 143h160l104 -143h-111zM265 -11c-160 0 -254 123 -254 258s93 257 254 257c159 0 253 -121 253 -257c0 -135 -95 -258 -253 -258zM265 120c81 0 102 65 102 127s-20 126 -102 126s-103 -63 -103 -126c0 -60 20 -127 103 -127z" />
    <glyph glyph-name="uni1ECF" unicode="&#x1ecf;" horiz-adv-x="529" 
d="M238 510l-17 61c28 4 55 5 55 29c0 26 -34 26 -71 26h-16v92h16c106 0 176 -38 176 -107c0 -79 -85 -93 -143 -101zM265 -11c-160 0 -254 123 -254 258s93 257 254 257c159 0 253 -121 253 -257c0 -135 -95 -258 -253 -258zM265 120c81 0 102 65 102 127
s-20 126 -102 126s-103 -63 -103 -126c0 -60 20 -127 103 -127z" />
    <glyph glyph-name="ohorn" unicode="&#x1a1;" horiz-adv-x="529" 
d="M509 530h104v-34c0 -73 -31 -141 -108 -164c9 -27 13 -56 13 -85c0 -135 -95 -258 -253 -258c-160 0 -254 123 -254 258s93 257 254 257c82 0 146 -32 190 -82c42 4 54 34 54 83v25zM265 120c81 0 102 65 102 127s-20 126 -102 126s-103 -63 -103 -126
c0 -60 20 -127 103 -127z" />
    <glyph glyph-name="uni1EDB" unicode="&#x1edb;" horiz-adv-x="529" 
d="M485 697l-166 -143h-109l113 143h162zM509 530h104v-34c0 -73 -31 -141 -108 -164c9 -27 13 -56 13 -85c0 -135 -95 -258 -253 -258c-160 0 -254 123 -254 258s93 257 254 257c82 0 146 -32 190 -82c42 4 54 34 54 83v25zM265 120c81 0 102 65 102 127s-20 126 -102 126
s-103 -63 -103 -126c0 -60 20 -127 103 -127z" />
    <glyph glyph-name="uni1EE3" unicode="&#x1ee3;" horiz-adv-x="529" 
d="M509 530h104v-34c0 -73 -31 -141 -108 -164c9 -27 13 -56 13 -85c0 -135 -95 -258 -253 -258c-160 0 -254 123 -254 258s93 257 254 257c82 0 146 -32 190 -82c42 4 54 34 54 83v25zM265 120c81 0 102 65 102 127s-20 126 -102 126s-103 -63 -103 -126
c0 -60 20 -127 103 -127zM188 -173v117h154v-117h-154z" />
    <glyph glyph-name="uni1EDD" unicode="&#x1edd;" horiz-adv-x="529" 
d="M320 554h-111l-153 143h160zM509 530h104v-34c0 -73 -31 -141 -108 -164c9 -27 13 -56 13 -85c0 -135 -95 -258 -253 -258c-160 0 -254 123 -254 258s93 257 254 257c82 0 146 -32 190 -82c42 4 54 34 54 83v25zM265 120c81 0 102 65 102 127s-20 126 -102 126
s-103 -63 -103 -126c0 -60 20 -127 103 -127z" />
    <glyph glyph-name="uni1EDF" unicode="&#x1edf;" horiz-adv-x="529" 
d="M276 600c0 26 -34 26 -71 26h-16v92h16c106 0 176 -38 176 -107c0 -79 -85 -93 -143 -101l-17 61c28 4 55 5 55 29zM509 530h104v-34c0 -73 -31 -141 -108 -164c9 -27 13 -56 13 -85c0 -135 -95 -258 -253 -258c-160 0 -254 123 -254 258s93 257 254 257
c82 0 146 -32 190 -82c42 4 54 34 54 83v25zM265 120c81 0 102 65 102 127s-20 126 -102 126s-103 -63 -103 -126c0 -60 20 -127 103 -127z" />
    <glyph glyph-name="uni1EE1" unicode="&#x1ee1;" horiz-adv-x="529" 
d="M200 607c-13 0 -21 -20 -21 -60h-86c0 97 44 152 114 152c65 0 95 -60 119 -60c11 0 20 19 20 58h90c0 -98 -43 -149 -112 -149c-75 0 -97 59 -124 59zM509 530h104v-34c0 -73 -31 -141 -108 -164c9 -27 13 -56 13 -85c0 -135 -95 -258 -253 -258
c-160 0 -254 123 -254 258s93 257 254 257c82 0 146 -32 190 -82c42 4 54 34 54 83v25zM265 120c81 0 102 65 102 127s-20 126 -102 126s-103 -63 -103 -126c0 -60 20 -127 103 -127z" />
    <glyph glyph-name="ohungarumlaut" unicode="&#x151;" horiz-adv-x="529" 
d="M108 527l113 170h135l-139 -170h-109zM313 527l113 170h160l-164 -170h-109zM265 -11c-160 0 -254 123 -254 258s93 257 254 257c159 0 253 -121 253 -257c0 -135 -95 -258 -253 -258zM265 120c81 0 102 65 102 127s-20 126 -102 126s-103 -63 -103 -126
c0 -60 20 -127 103 -127z" />
    <glyph glyph-name="omacron" unicode="&#x14d;" horiz-adv-x="529" 
d="M126 546v87h278v-87h-278zM265 -11c-160 0 -254 123 -254 258s93 257 254 257c159 0 253 -121 253 -257c0 -135 -95 -258 -253 -258zM265 120c81 0 102 65 102 127s-20 126 -102 126s-103 -63 -103 -126c0 -60 20 -127 103 -127z" />
    <glyph glyph-name="oslash" unicode="&#xf8;" horiz-adv-x="529" 
d="M437 441c52 -48 81 -119 81 -194c0 -135 -95 -258 -253 -258c-33 0 -63 5 -90 14l-25 -42h-112l55 92c-53 48 -82 119 -82 194c0 135 93 257 254 257c32 0 62 -5 88 -14l26 43h113zM162 247c0 -21 2 -43 9 -63l112 188c-6 1 -12 1 -18 1c-82 0 -103 -63 -103 -126z
M265 120c81 0 102 65 102 127c0 21 -2 43 -9 62l-112 -188c6 -1 12 -1 19 -1z" />
    <glyph glyph-name="otilde" unicode="&#xf5;" horiz-adv-x="529" 
d="M324 548c-75 0 -97 59 -124 59c-13 0 -21 -20 -21 -60h-86c0 97 44 152 114 152c65 0 95 -60 119 -60c11 0 20 19 20 58h90c0 -98 -43 -149 -112 -149zM265 -11c-160 0 -254 123 -254 258s93 257 254 257c159 0 253 -121 253 -257c0 -135 -95 -258 -253 -258zM265 120
c81 0 102 65 102 127s-20 126 -102 126s-103 -63 -103 -126c0 -60 20 -127 103 -127z" />
    <glyph glyph-name="oe" unicode="&#x153;" horiz-adv-x="861" 
d="M846 242c0 -14 -1 -27 -3 -48h-324c6 -39 36 -69 101 -69c37 0 76 14 104 48l104 -92c-52 -59 -122 -92 -209 -92c-82 0 -141 26 -181 66c-43 -41 -101 -66 -173 -66c-160 0 -254 123 -254 258s93 257 254 257c73 0 132 -25 174 -66c39 40 95 66 172 66
c154 0 235 -110 235 -262zM517 305h185c-2 46 -43 74 -93 74c-63 0 -86 -42 -92 -74zM265 120c81 0 102 65 102 127s-20 126 -102 126s-103 -63 -103 -126c0 -60 20 -127 103 -127zM700 286l1 1z" />
    <glyph glyph-name="p" unicode="p" horiz-adv-x="556" 
d="M337 504c132 0 201 -114 201 -259c0 -169 -94 -256 -201 -256c-47 0 -98 19 -129 50v-243h-151v697h151v-37c34 35 86 48 129 48zM295 120c62 0 93 41 93 127c0 85 -31 125 -91 125c-80 0 -103 -55 -103 -125s26 -127 101 -127z" />
    <glyph glyph-name="thorn" unicode="&#xfe;" horiz-adv-x="556" 
d="M337 504c132 0 201 -114 201 -259c0 -169 -94 -256 -201 -256c-47 0 -98 19 -129 50v-243h-151v901h151v-241c34 35 86 48 129 48zM295 120c65 0 93 41 93 127c0 85 -24 125 -91 125c-80 0 -103 -55 -103 -125s26 -127 101 -127z" />
    <glyph glyph-name="q" unicode="q" horiz-adv-x="556" 
d="M348 493h151v-697h-151v243c-31 -31 -82 -50 -129 -50c-107 0 -201 87 -201 256c0 145 69 259 201 259c43 0 95 -13 129 -48v37zM261 120c75 0 101 57 101 127s-23 125 -103 125c-60 0 -91 -40 -91 -125c0 -86 31 -127 93 -127z" />
    <glyph glyph-name="r" unicode="r" horiz-adv-x="407" 
d="M332 504c34 0 64 -9 99 -32l-72 -136c-14 9 -40 18 -64 18c-53 0 -88 -38 -88 -125v-229h-151v493h152v-75c23 52 71 86 124 86z" />
    <glyph glyph-name="racute" unicode="&#x155;" horiz-adv-x="407" 
d="M422 697l-166 -143h-109l113 143h162zM332 504c34 0 64 -9 99 -32l-72 -136c-14 9 -40 18 -64 18c-53 0 -88 -38 -88 -125v-229h-151v493h152v-75c23 52 71 86 124 86z" />
    <glyph glyph-name="rcaron" unicode="&#x159;" horiz-adv-x="407" 
d="M362 697l-160 -171l-160 171h115l45 -50l46 50h114zM332 504c34 0 64 -9 99 -32l-72 -136c-14 9 -40 18 -64 18c-53 0 -88 -38 -88 -125v-229h-151v493h152v-75c23 52 71 86 124 86z" />
    <glyph glyph-name="uni0157" unicode="&#x157;" horiz-adv-x="407" 
d="M332 504c34 0 64 -9 99 -32l-72 -136c-14 9 -40 18 -64 18c-53 0 -88 -38 -88 -125v-229h-151v493h152v-75c23 52 71 86 124 86zM69 -229l54 178h157l-125 -178h-86z" />
    <glyph glyph-name="s" unicode="s" horiz-adv-x="433" 
d="M215 -11c-109 0 -187 71 -210 143l119 53c10 -27 23 -76 90 -76c42 0 54 18 54 33c0 68 -236 34 -236 208c0 111 97 154 186 154c91 0 156 -44 195 -109l-116 -64c-12 22 -32 62 -81 62c-28 0 -42 -12 -42 -28c0 -65 242 -16 242 -202c0 -124 -109 -174 -201 -174z" />
    <glyph glyph-name="sacute" unicode="&#x15b;" horiz-adv-x="433" 
d="M168 554l113 143h162l-166 -143h-109zM215 -11c-109 0 -187 71 -210 143l119 53c10 -27 23 -76 90 -76c42 0 54 18 54 33c0 68 -236 34 -236 208c0 111 97 154 186 154c91 0 156 -44 195 -109l-116 -64c-12 22 -32 62 -81 62c-28 0 -42 -12 -42 -28
c0 -65 242 -16 242 -202c0 -124 -109 -174 -201 -174z" />
    <glyph glyph-name="scaron" unicode="&#x161;" horiz-adv-x="433" 
d="M223 526l-160 171h115l45 -50l46 50h114zM215 -11c-109 0 -187 71 -210 143l119 53c10 -27 23 -76 90 -76c42 0 54 18 54 33c0 68 -236 34 -236 208c0 111 97 154 186 154c91 0 156 -44 195 -109l-116 -64c-12 22 -32 62 -81 62c-28 0 -42 -12 -42 -28
c0 -65 242 -16 242 -202c0 -124 -109 -174 -201 -174z" />
    <glyph glyph-name="scedilla" unicode="&#x15f;" horiz-adv-x="433" 
d="M416 163c0 -104 -77 -156 -157 -170l-30 -33c19 -4 35 -12 47 -21c24 -19 34 -47 34 -77c0 -68 -50 -122 -124 -122c-14 0 -46 2 -79 23l46 73c13 -7 26 -11 37 -11c19 0 33 10 33 31c0 23 -15 35 -37 41c-21 6 -44 6 -71 6l58 90c-87 15 -148 77 -168 139l119 53
c10 -27 23 -76 90 -76c42 0 54 18 54 33c0 68 -236 34 -236 208c0 111 97 154 186 154c91 0 156 -44 195 -109l-116 -64c-12 22 -32 62 -81 62c-28 0 -42 -12 -42 -28c0 -65 242 -16 242 -202z" />
    <glyph glyph-name="uni0219" unicode="&#x219;" horiz-adv-x="433" 
d="M215 -11c-109 0 -187 71 -210 143l119 53c10 -27 23 -76 90 -76c42 0 54 18 54 33c0 68 -236 34 -236 208c0 111 97 154 186 154c91 0 156 -44 195 -109l-116 -64c-12 22 -32 62 -81 62c-28 0 -42 -12 -42 -28c0 -65 242 -16 242 -202c0 -124 -109 -174 -201 -174z
M90 -229l54 178h157l-125 -178h-86z" />
    <glyph glyph-name="germandbls" unicode="&#xdf;" horiz-adv-x="643" 
d="M437 -11c-108 0 -188 67 -211 143l120 53c10 -27 25 -71 89 -71c40 0 55 18 55 34c0 61 -226 28 -226 196c0 151 183 137 183 189c0 27 -50 33 -89 33c-148 0 -145 -86 -145 -139v-427h-157v427c0 144 54 280 290 280c149 0 249 -54 249 -169c0 -155 -183 -168 -183 -194
c0 -29 226 -4 226 -181c0 -124 -110 -174 -201 -174z" />
    <glyph glyph-name="t" unicode="t" horiz-adv-x="378" 
d="M353 376h-126v-205c0 -19 0 -60 62 -60c20 0 42 4 64 11l-1 -117c-32 -11 -64 -16 -99 -16c-93 0 -176 42 -176 168v219h-79v117h79v73l150 111v-184h126v-117z" />
    <glyph glyph-name="tbar" unicode="&#x167;" horiz-adv-x="378" 
d="M354 198h-127v-27c0 -19 0 -60 62 -60c20 0 42 4 64 11l-1 -117c-32 -11 -64 -16 -99 -16c-93 0 -176 42 -176 168v41h-78v100h78v78h-79v117h79v73l150 111v-184h126v-117h-126v-78h127v-100z" />
    <glyph glyph-name="tcaron" unicode="&#x165;" horiz-adv-x="378" 
d="M470 786l-126 -234h-87l55 234h158zM227 677v-184h126v-117h-126v-205c0 -19 0 -60 62 -60c20 0 42 4 64 11l-1 -117c-32 -11 -64 -16 -99 -16c-93 0 -176 42 -176 168v219h-79v117h79v73z" />
    <glyph glyph-name="uni0163" unicode="&#x163;" horiz-adv-x="378" 
d="M353 376h-126v-205c0 -19 0 -60 62 -60c20 0 42 4 64 11l-1 -117c-29 -10 -58 -15 -89 -16l-27 -29c19 -4 35 -12 47 -21c24 -19 34 -47 34 -77c0 -68 -50 -122 -124 -122c-14 0 -46 2 -79 23l46 73c13 -7 26 -11 37 -11c19 0 33 10 33 31c0 23 -15 35 -37 41
c-21 6 -44 6 -71 6l62 95c-62 18 -107 66 -107 159v219h-79v117h79v73l150 111v-184h126v-117z" />
    <glyph glyph-name="uni021B" unicode="&#x21b;" horiz-adv-x="378" 
d="M353 376h-126v-205c0 -19 0 -60 62 -60c20 0 42 4 64 11l-1 -117c-32 -11 -64 -16 -99 -16c-93 0 -176 42 -176 168v219h-79v117h79v73l150 111v-184h126v-117zM97 -229l54 178h157l-125 -178h-86z" />
    <glyph glyph-name="u" unicode="u" horiz-adv-x="572" 
d="M365 493h151v-493h-151v48c-36 -42 -84 -59 -137 -59c-131 0 -185 83 -185 199v305h151v-274c0 -48 7 -99 80 -99c91 0 91 93 91 210v163z" />
    <glyph glyph-name="uacute" unicode="&#xfa;" horiz-adv-x="572" 
d="M499 697l-166 -143h-109l113 143h162zM365 493h151v-493h-151v48c-36 -42 -84 -59 -137 -59c-131 0 -185 83 -185 199v305h151v-274c0 -48 7 -99 80 -99c91 0 91 93 91 210v163z" />
    <glyph glyph-name="uni01D4" unicode="&#x1d4;" horiz-adv-x="572" 
d="M439 697l-160 -171l-160 171h115l45 -50l46 50h114zM365 493h151v-493h-151v48c-36 -42 -84 -59 -137 -59c-131 0 -185 83 -185 199v305h151v-274c0 -48 7 -99 80 -99c91 0 91 93 91 210v163z" />
    <glyph glyph-name="ucircumflex" unicode="&#xfb;" horiz-adv-x="572" 
d="M279 593l-46 -56h-114l160 183l160 -183h-114zM365 493h151v-493h-151v48c-36 -42 -84 -59 -137 -59c-131 0 -185 83 -185 199v305h151v-274c0 -48 7 -99 80 -99c91 0 91 93 91 210v163z" />
    <glyph glyph-name="udieresis" unicode="&#xfc;" horiz-adv-x="572" 
d="M234 697v-136h-114v136h114zM438 697v-136h-114v136h114zM365 493h151v-493h-151v48c-36 -42 -84 -59 -137 -59c-131 0 -185 83 -185 199v305h151v-274c0 -48 7 -99 80 -99c91 0 91 93 91 210v163z" />
    <glyph glyph-name="uni01D8" unicode="&#x1d8;" horiz-adv-x="572" 
d="M499 901l-166 -143h-109l113 143h162zM234 697v-136h-114v136h114zM324 561v136h114v-136h-114zM365 493h151v-493h-151v48c-36 -42 -84 -59 -137 -59c-131 0 -185 83 -185 199v305h151v-274c0 -48 7 -99 80 -99c91 0 91 93 91 210v163z" />
    <glyph glyph-name="uni01DA" unicode="&#x1da;" horiz-adv-x="572" 
d="M439 901l-160 -171l-160 171h115l45 -50l46 50h114zM234 561h-114v136h114v-136zM438 561h-114v136h114v-136zM365 493h151v-493h-151v48c-36 -42 -84 -59 -137 -59c-131 0 -185 83 -185 199v305h151v-274c0 -48 7 -99 80 -99c91 0 91 93 91 210v163z" />
    <glyph glyph-name="uni01DC" unicode="&#x1dc;" horiz-adv-x="572" 
d="M334 758h-111l-153 143h160zM120 561v136h114v-136h-114zM324 561v136h114v-136h-114zM365 493h151v-493h-151v48c-36 -42 -84 -59 -137 -59c-131 0 -185 83 -185 199v305h151v-274c0 -48 7 -99 80 -99c91 0 91 93 91 210v163z" />
    <glyph glyph-name="uni01D6" unicode="&#x1d6;" horiz-adv-x="572" 
d="M418 837v-87h-278v87h278zM234 697v-136h-114v136h114zM324 561v136h114v-136h-114zM365 493h151v-493h-151v48c-36 -42 -84 -59 -137 -59c-131 0 -185 83 -185 199v305h151v-274c0 -48 7 -99 80 -99c91 0 91 93 91 210v163z" />
    <glyph glyph-name="uni1EE5" unicode="&#x1ee5;" horiz-adv-x="572" 
d="M365 493h151v-493h-151v48c-36 -42 -84 -59 -137 -59c-131 0 -185 83 -185 199v305h151v-274c0 -48 7 -99 80 -99c91 0 91 93 91 210v163zM208 -173v117h154v-117h-154z" />
    <glyph glyph-name="ugrave" unicode="&#xf9;" horiz-adv-x="572" 
d="M334 554h-111l-153 143h160zM365 493h151v-493h-151v48c-36 -42 -84 -59 -137 -59c-131 0 -185 83 -185 199v305h151v-274c0 -48 7 -99 80 -99c91 0 91 93 91 210v163z" />
    <glyph glyph-name="uni1EE7" unicode="&#x1ee7;" horiz-adv-x="572" 
d="M290 600c0 26 -34 26 -71 26h-16v92h16c106 0 176 -38 176 -107c0 -79 -85 -93 -143 -101l-17 61c28 4 55 5 55 29zM365 493h151v-493h-151v48c-36 -42 -84 -59 -137 -59c-131 0 -185 83 -185 199v305h151v-274c0 -48 7 -99 80 -99c91 0 91 93 91 210v163z" />
    <glyph glyph-name="uhorn" unicode="&#x1b0;" horiz-adv-x="572" 
d="M480 600h104v-34c0 -59 -20 -115 -68 -146v-420h-151v48c-36 -42 -84 -59 -137 -59c-131 0 -185 83 -185 199v305h151v-274c0 -48 7 -99 80 -99c91 0 91 93 91 210v163h66c38 6 49 35 49 82v25z" />
    <glyph glyph-name="uni1EE9" unicode="&#x1ee9;" horiz-adv-x="572" 
d="M499 697l-166 -143h-109l113 143h162zM480 600h104v-34c0 -59 -20 -115 -68 -146v-420h-151v48c-36 -42 -84 -59 -137 -59c-131 0 -185 83 -185 199v305h151v-274c0 -48 7 -99 80 -99c91 0 91 93 91 210v163h66c38 6 49 35 49 82v25z" />
    <glyph glyph-name="uni1EF1" unicode="&#x1ef1;" horiz-adv-x="572" 
d="M480 600h104v-34c0 -59 -20 -115 -68 -146v-420h-151v48c-36 -42 -84 -59 -137 -59c-131 0 -185 83 -185 199v305h151v-274c0 -48 7 -99 80 -99c91 0 91 93 91 210v163h66c38 6 49 35 49 82v25zM208 -173v117h154v-117h-154z" />
    <glyph glyph-name="uni1EEB" unicode="&#x1eeb;" horiz-adv-x="572" 
d="M334 554h-111l-153 143h160zM480 600h104v-34c0 -59 -20 -115 -68 -146v-420h-151v48c-36 -42 -84 -59 -137 -59c-131 0 -185 83 -185 199v305h151v-274c0 -48 7 -99 80 -99c91 0 91 93 91 210v163h66c38 6 49 35 49 82v25z" />
    <glyph glyph-name="uni1EED" unicode="&#x1eed;" horiz-adv-x="572" 
d="M290 600c0 26 -34 26 -71 26h-16v92h16c106 0 176 -38 176 -107c0 -79 -85 -93 -143 -101l-17 61c28 4 55 5 55 29zM480 600h104v-34c0 -59 -20 -115 -68 -146v-420h-151v48c-36 -42 -84 -59 -137 -59c-131 0 -185 83 -185 199v305h151v-274c0 -48 7 -99 80 -99
c91 0 91 93 91 210v163h66c38 6 49 35 49 82v25z" />
    <glyph glyph-name="uni1EEF" unicode="&#x1eef;" horiz-adv-x="572" 
d="M214 607c-13 0 -21 -20 -21 -60h-86c0 97 44 152 114 152c65 0 95 -60 119 -60c11 0 20 19 20 58h90c0 -98 -43 -149 -112 -149c-75 0 -97 59 -124 59zM480 600h104v-34c0 -59 -20 -115 -68 -146v-420h-151v48c-36 -42 -84 -59 -137 -59c-131 0 -185 83 -185 199v305h151
v-274c0 -48 7 -99 80 -99c91 0 91 93 91 210v163h66c38 6 49 35 49 82v25z" />
    <glyph glyph-name="uhungarumlaut" unicode="&#x171;" horiz-adv-x="572" 
d="M370 697l-139 -170h-109l113 170h135zM436 527h-109l113 170h160zM365 330v163h151v-493h-151v48c-36 -42 -84 -59 -137 -59c-131 0 -185 83 -185 199v305h151v-274c0 -48 7 -99 80 -99c91 0 91 93 91 210z" />
    <glyph glyph-name="umacron" unicode="&#x16b;" horiz-adv-x="572" 
d="M418 633v-87h-278v87h278zM365 493h151v-493h-151v48c-36 -42 -84 -59 -137 -59c-131 0 -185 83 -185 199v305h151v-274c0 -48 7 -99 80 -99c91 0 91 93 91 210v163z" />
    <glyph glyph-name="uogonek" unicode="&#x173;" horiz-adv-x="572" 
d="M486 -107l78 -51c-23 -37 -57 -69 -117 -69c-72 0 -125 45 -125 111c0 67 50 102 76 116h-33v48c-36 -42 -84 -59 -137 -59c-131 0 -185 83 -185 199v305h151v-274c0 -48 7 -99 80 -99c91 0 91 93 91 210v163h151v-493c-19 -5 -105 -46 -105 -100c0 -28 15 -35 32 -35
c21 0 34 11 43 28z" />
    <glyph glyph-name="uring" unicode="&#x16f;" horiz-adv-x="572" 
d="M279 520c-70 0 -124 59 -124 124c0 68 55 124 124 124c66 0 124 -54 124 -124c0 -69 -56 -124 -124 -124zM279 688c-28 0 -43 -18 -43 -42c0 -27 18 -46 43 -46c27 0 44 19 44 46c0 25 -15 42 -44 42zM365 493h151v-493h-151v48c-36 -42 -84 -59 -137 -59
c-131 0 -185 83 -185 199v305h151v-274c0 -48 7 -99 80 -99c91 0 91 93 91 210v163z" />
    <glyph glyph-name="utilde" unicode="&#x169;" horiz-adv-x="572" 
d="M214 607c-13 0 -21 -20 -21 -60h-86c0 97 44 152 114 152c65 0 95 -60 119 -60c11 0 20 19 20 58h90c0 -98 -43 -149 -112 -149c-75 0 -97 59 -124 59zM365 493h151v-493h-151v48c-36 -42 -84 -59 -137 -59c-131 0 -185 83 -185 199v305h151v-274c0 -48 7 -99 80 -99
c91 0 91 93 91 210v163z" />
    <glyph glyph-name="v" unicode="v" horiz-adv-x="486" 
d="M182 0l-201 493h165l97 -296l100 296h162l-200 -493h-123z" />
    <glyph glyph-name="w" unicode="w" horiz-adv-x="709" 
d="M144 0l-156 493h160l71 -261l71 261h127l71 -259l72 259h161l-157 -493h-133l-77 278l-75 -278h-135z" />
    <glyph glyph-name="wacute" unicode="&#x1e83;" horiz-adv-x="709" 
d="M300 554l113 143h162l-166 -143h-109zM144 0l-156 493h160l71 -261l71 261h127l71 -259l72 259h161l-157 -493h-133l-77 278l-75 -278h-135z" />
    <glyph glyph-name="wcircumflex" unicode="&#x175;" horiz-adv-x="709" 
d="M195 537l160 183l160 -183h-114l-46 56l-46 -56h-114zM144 0l-156 493h160l71 -261l71 261h127l71 -259l72 259h161l-157 -493h-133l-77 278l-75 -278h-135z" />
    <glyph glyph-name="wdieresis" unicode="&#x1e85;" horiz-adv-x="709" 
d="M196 561v136h114v-136h-114zM400 561v136h114v-136h-114zM144 0l-156 493h160l71 -261l71 261h127l71 -259l72 259h161l-157 -493h-133l-77 278l-75 -278h-135z" />
    <glyph glyph-name="wgrave" unicode="&#x1e81;" horiz-adv-x="709" 
d="M299 554l-153 143h160l104 -143h-111zM144 0l-156 493h160l71 -261l71 261h127l71 -259l72 259h161l-157 -493h-133l-77 278l-75 -278h-135z" />
    <glyph glyph-name="x" unicode="x" horiz-adv-x="507" 
d="M-9 0l162 249l-162 244h185l78 -142l78 142h185l-164 -244l164 -249h-185l-78 146l-79 -146h-184z" />
    <glyph glyph-name="y" unicode="y" horiz-adv-x="503" 
d="M74 -204l91 221l-183 476h166l98 -304l112 304h165l-286 -697h-163z" />
    <glyph glyph-name="yacute" unicode="&#xfd;" horiz-adv-x="503" 
d="M198 554l113 143h162l-166 -143h-109zM74 -204l91 221l-183 476h166l98 -304l112 304h165l-286 -697h-163z" />
    <glyph glyph-name="ycircumflex" unicode="&#x177;" horiz-adv-x="503" 
d="M93 537l160 183l160 -183h-114l-46 56l-46 -56h-114zM74 -204l91 221l-183 476h166l98 -304l112 304h165l-286 -697h-163z" />
    <glyph glyph-name="ydieresis" unicode="&#xff;" horiz-adv-x="503" 
d="M94 561v136h114v-136h-114zM298 561v136h114v-136h-114zM74 -204l91 221l-183 476h166l98 -304l112 304h165l-286 -697h-163z" />
    <glyph glyph-name="uni1EF5" unicode="&#x1ef5;" horiz-adv-x="503" 
d="M74 -204l91 221l-183 476h166l98 -304l112 304h165l-286 -697h-163zM335 -204v117h154v-117h-154z" />
    <glyph glyph-name="ygrave" unicode="&#x1ef3;" horiz-adv-x="503" 
d="M197 554l-153 143h160l104 -143h-111zM74 -204l91 221l-183 476h166l98 -304l112 304h165l-286 -697h-163z" />
    <glyph glyph-name="uni1EF7" unicode="&#x1ef7;" horiz-adv-x="503" 
d="M226 510l-17 61c28 4 55 5 55 29c0 26 -34 26 -71 26h-16v92h16c106 0 176 -38 176 -107c0 -79 -85 -93 -143 -101zM74 -204l91 221l-183 476h166l98 -304l112 304h165l-286 -697h-163z" />
    <glyph glyph-name="uni1EF9" unicode="&#x1ef9;" horiz-adv-x="503" 
d="M312 548c-75 0 -97 59 -124 59c-13 0 -21 -20 -21 -60h-86c0 97 44 152 114 152c65 0 95 -60 119 -60c11 0 20 19 20 58h90c0 -98 -43 -149 -112 -149zM74 -204l91 221l-183 476h166l98 -304l112 304h165l-286 -697h-163z" />
    <glyph glyph-name="z" unicode="z" horiz-adv-x="461" 
d="M223 126h210v-126h-412v98l221 269h-211v126h401v-105z" />
    <glyph glyph-name="zacute" unicode="&#x17a;" horiz-adv-x="461" 
d="M450 697l-166 -143h-109l113 143h162zM432 388l-209 -262h210v-126h-412v98l221 269h-211v126h401v-105z" />
    <glyph glyph-name="zcaron" unicode="&#x17e;" horiz-adv-x="461" 
d="M390 697l-160 -171l-160 171h115l45 -50l46 50h114zM223 126h210v-126h-412v98l221 269h-211v126h401v-105z" />
    <glyph glyph-name="zdotaccent" unicode="&#x17c;" horiz-adv-x="461" 
d="M307 697v-136h-154v136h154zM223 126h210v-126h-412v98l221 269h-211v126h401v-105z" />
    <glyph glyph-name="g.ss01" horiz-adv-x="558" 
d="M349 493h152v-478c0 -159 -98 -233 -246 -233c-128 0 -191 55 -233 108l117 92c21 -30 50 -68 118 -68c41 0 92 14 92 101v53c-34 -39 -80 -51 -127 -51c-131 0 -207 95 -207 242c0 144 73 245 203 245c46 0 96 -13 131 -50v39zM267 148c70 0 94 47 94 112
c0 63 -22 116 -94 116c-73 0 -98 -54 -98 -117c0 -66 28 -111 98 -111z" />
    <glyph glyph-name="gbreve.ss01" horiz-adv-x="558" 
d="M281 563c-112 0 -159 48 -159 134h106c0 -33 27 -47 53 -47c28 0 53 16 53 47h106c0 -92 -53 -134 -159 -134zM349 493h152v-478c0 -159 -98 -233 -246 -233c-128 0 -191 55 -233 108l117 92c21 -30 50 -68 118 -68c41 0 92 14 92 101v53c-34 -39 -80 -51 -127 -51
c-131 0 -207 95 -207 242c0 144 73 245 203 245c46 0 96 -13 131 -50v39zM267 148c70 0 94 47 94 112c0 63 -22 116 -94 116c-73 0 -98 -54 -98 -117c0 -66 28 -111 98 -111z" />
    <glyph glyph-name="uni0123.ss01" horiz-adv-x="558" 
d="M387 710l-55 -160h-156l125 160h86zM349 493h152v-478c0 -159 -98 -233 -246 -233c-128 0 -191 55 -233 108l117 92c21 -30 50 -68 118 -68c41 0 92 14 92 101v53c-34 -39 -80 -51 -127 -51c-131 0 -207 95 -207 242c0 144 73 245 203 245c46 0 96 -13 131 -50v39z
M267 148c70 0 94 47 94 112c0 63 -22 116 -94 116c-73 0 -98 -54 -98 -117c0 -66 28 -111 98 -111z" />
    <glyph glyph-name="gdotaccent.ss01" horiz-adv-x="558" 
d="M358 697v-136h-154v136h154zM349 493h152v-478c0 -159 -98 -233 -246 -233c-128 0 -191 55 -233 108l117 92c21 -30 50 -68 118 -68c41 0 92 14 92 101v53c-34 -39 -80 -51 -127 -51c-131 0 -207 95 -207 242c0 144 73 245 203 245c46 0 96 -13 131 -50v39zM267 148
c70 0 94 47 94 112c0 63 -22 116 -94 116c-73 0 -98 -54 -98 -117c0 -66 28 -111 98 -111z" />
    <glyph glyph-name="g.ss02" horiz-adv-x="521" 
d="M325 93c47 0 176 0 176 -139c0 -102 -69 -169 -246 -169c-116 0 -249 29 -249 147c0 20 4 37 10 50l58 14c-31 21 -62 55 -62 107c0 50 26 87 69 117c-18 27 -28 60 -28 97c0 111 93 187 210 187c41 0 77 -9 107 -24l77 65l76 -95l-69 -53c13 -26 20 -54 20 -84
c0 -114 -97 -177 -211 -177c-34 0 -65 5 -92 16c-11 -7 -18 -19 -18 -30c0 -29 53 -29 84 -29h88zM266 386c-44 0 -62 -34 -62 -71c0 -38 19 -69 62 -69c41 0 61 32 61 69c0 38 -20 71 -61 71zM256 -100c68 0 100 10 100 37c0 32 -39 30 -67 30h-109l-33 -26v-4
c0 -15 0 -37 109 -37z" />
    <glyph glyph-name="gbreve.ss02" horiz-adv-x="521" 
d="M261 563c-112 0 -159 48 -159 134h106c0 -33 27 -47 53 -47c28 0 53 16 53 47h106c0 -92 -53 -134 -159 -134zM325 93c47 0 176 0 176 -139c0 -102 -69 -169 -246 -169c-116 0 -249 29 -249 147c0 20 4 37 10 50l58 14c-31 21 -62 55 -62 107c0 50 26 87 69 117
c-18 27 -28 60 -28 97c0 111 93 187 210 187c41 0 77 -9 107 -24l77 65l76 -95l-69 -53c13 -26 20 -54 20 -84c0 -114 -97 -177 -211 -177c-34 0 -65 5 -92 16c-11 -7 -18 -19 -18 -30c0 -29 53 -29 84 -29h88zM266 386c-44 0 -62 -34 -62 -71c0 -38 19 -69 62 -69
c41 0 61 32 61 69c0 38 -20 71 -61 71zM256 -100c68 0 100 10 100 37c0 32 -39 30 -67 30h-109l-33 -26v-4c0 -15 0 -37 109 -37z" />
    <glyph glyph-name="uni0123.ss02" horiz-adv-x="521" 
d="M367 710l-55 -160h-156l125 160h86zM325 93c47 0 176 0 176 -139c0 -102 -69 -169 -246 -169c-116 0 -249 29 -249 147c0 20 4 37 10 50l58 14c-31 21 -62 55 -62 107c0 50 26 87 69 117c-18 27 -28 60 -28 97c0 111 93 187 210 187c41 0 77 -9 107 -24l77 65l76 -95
l-69 -53c13 -26 20 -54 20 -84c0 -114 -97 -177 -211 -177c-34 0 -65 5 -92 16c-11 -7 -18 -19 -18 -30c0 -29 53 -29 84 -29h88zM266 386c-44 0 -62 -34 -62 -71c0 -38 19 -69 62 -69c41 0 61 32 61 69c0 38 -20 71 -61 71zM256 -100c68 0 100 10 100 37
c0 32 -39 30 -67 30h-109l-33 -26v-4c0 -15 0 -37 109 -37z" />
    <glyph glyph-name="gdotaccent.ss02" horiz-adv-x="521" 
d="M338 697v-136h-154v136h154zM325 93c47 0 176 0 176 -139c0 -102 -69 -169 -246 -169c-116 0 -249 29 -249 147c0 20 4 37 10 50l58 14c-31 21 -62 55 -62 107c0 50 26 87 69 117c-18 27 -28 60 -28 97c0 111 93 187 210 187c41 0 77 -9 107 -24l77 65l76 -95l-69 -53
c13 -26 20 -54 20 -84c0 -114 -97 -177 -211 -177c-34 0 -65 5 -92 16c-11 -7 -18 -19 -18 -30c0 -29 53 -29 84 -29h88zM266 386c-44 0 -62 -34 -62 -71c0 -38 19 -69 62 -69c41 0 61 32 61 69c0 38 -20 71 -61 71zM256 -100c68 0 100 10 100 37c0 32 -39 30 -67 30h-109
l-33 -26v-4c0 -15 0 -37 109 -37z" />
    <glyph glyph-name="uni1EB7.ss03" horiz-adv-x="523" 
d="M255 563c-112 0 -159 48 -159 134h106c0 -33 27 -47 53 -47c28 0 53 16 53 47h106c0 -92 -53 -134 -159 -134zM257 504c140 0 224 -74 224 -191v-313h-138l-10 49c-40 -53 -93 -60 -129 -60c-111 0 -191 69 -191 170c0 57 26 98 68 121c31 17 70 25 114 25h136v8
c0 35 -30 60 -85 60c-37 0 -75 -11 -119 -53l-109 91c62 65 153 93 239 93zM228 110c54 0 100 35 103 84h-114c-16 0 -29 -3 -38 -9c-10 -7 -15 -17 -15 -29c0 -25 21 -46 64 -46zM255 -38c48 0 85 -37 85 -85s-37 -86 -85 -86c-47 0 -85 38 -85 86s37 85 85 85z" />
    <glyph glyph-name="uni1EAD.ss03" horiz-adv-x="523" 
d="M255 593l-46 -56h-114l160 183l160 -183h-114zM257 504c140 0 224 -74 224 -191v-313h-138l-10 49c-40 -53 -93 -60 -129 -60c-111 0 -191 69 -191 170c0 57 26 98 68 121c31 17 70 25 114 25h136v8c0 35 -30 60 -85 60c-37 0 -75 -11 -119 -53l-109 91
c62 65 153 93 239 93zM228 110c54 0 100 35 103 84h-114c-16 0 -29 -3 -38 -9c-10 -7 -15 -17 -15 -29c0 -25 21 -46 64 -46zM255 -38c48 0 85 -37 85 -85s-37 -86 -85 -86c-47 0 -85 38 -85 86s37 85 85 85z" />
    <glyph glyph-name="adieresis.ss03" horiz-adv-x="523" 
d="M152 537c-47 0 -85 38 -85 86s37 85 85 85s85 -37 85 -85s-37 -86 -85 -86zM358 537c-47 0 -85 38 -85 86s37 85 85 85s85 -37 85 -85s-37 -86 -85 -86zM257 504c140 0 224 -74 224 -191v-313h-138l-10 49c-40 -53 -93 -60 -129 -60c-111 0 -191 69 -191 170
c0 57 26 98 68 121c31 17 70 25 114 25h136v8c0 35 -30 60 -85 60c-37 0 -75 -11 -119 -53l-109 91c62 65 153 93 239 93zM228 110c54 0 100 35 103 84h-114c-16 0 -29 -3 -38 -9c-10 -7 -15 -17 -15 -29c0 -25 21 -46 64 -46z" />
    <glyph glyph-name="uni1EA1.ss03" horiz-adv-x="523" 
d="M257 504c140 0 224 -74 224 -191v-313h-138l-10 49c-40 -53 -93 -60 -129 -60c-111 0 -191 69 -191 170c0 57 26 98 68 121c31 17 70 25 114 25h136v8c0 35 -30 60 -85 60c-37 0 -75 -11 -119 -53l-109 91c62 65 153 93 239 93zM228 110c54 0 100 35 103 84h-114
c-16 0 -29 -3 -38 -9c-10 -7 -15 -17 -15 -29c0 -25 21 -46 64 -46zM255 -38c48 0 85 -37 85 -85s-37 -86 -85 -86c-47 0 -85 38 -85 86s37 85 85 85z" />
    <glyph glyph-name="cdotaccent.ss03" horiz-adv-x="482" 
d="M242 537c-47 0 -85 38 -85 86s37 85 85 85s85 -37 85 -85s-37 -86 -85 -86zM261 -11c-172 0 -249 130 -249 256c0 130 80 259 248 259c104 0 183 -49 220 -150l-142 -57c-7 46 -38 76 -78 76c-70 0 -93 -64 -93 -128c0 -63 21 -125 92 -125c39 0 71 29 80 73l136 -53
c-33 -93 -111 -151 -214 -151z" />
    <glyph glyph-name="uni1EC7.ss03" horiz-adv-x="507" 
d="M258 593l-46 -56h-114l160 183l160 -183h-114zM492 242c0 -14 -1 -27 -3 -48h-324c6 -39 36 -69 101 -69c37 0 76 14 104 48l104 -92c-52 -59 -122 -92 -209 -92c-182 0 -251 128 -251 255c0 123 67 260 243 260c154 0 235 -110 235 -262zM163 305h185
c-2 46 -43 74 -93 74c-63 0 -86 -42 -92 -74zM346 286l1 1zM265 -38c48 0 85 -37 85 -85s-37 -86 -85 -86c-47 0 -85 38 -85 86s37 85 85 85z" />
    <glyph glyph-name="edieresis.ss03" horiz-adv-x="507" 
d="M155 537c-47 0 -85 38 -85 86s37 85 85 85s85 -37 85 -85s-37 -86 -85 -86zM361 537c-47 0 -85 38 -85 86s37 85 85 85s85 -37 85 -85s-37 -86 -85 -86zM492 242c0 -14 -1 -27 -3 -48h-324c6 -39 36 -69 101 -69c37 0 76 14 104 48l104 -92c-52 -59 -122 -92 -209 -92
c-182 0 -251 128 -251 255c0 123 67 260 243 260c154 0 235 -110 235 -262zM163 305h185c-2 46 -43 74 -93 74c-63 0 -86 -42 -92 -74zM346 286l1 1z" />
    <glyph glyph-name="edotaccent.ss03" horiz-adv-x="507" 
d="M258 537c-47 0 -85 38 -85 86s37 85 85 85s85 -37 85 -85s-37 -86 -85 -86zM492 242c0 -14 -1 -27 -3 -48h-324c6 -39 36 -69 101 -69c37 0 76 14 104 48l104 -92c-52 -59 -122 -92 -209 -92c-182 0 -251 128 -251 255c0 123 67 260 243 260c154 0 235 -110 235 -262z
M163 305h185c-2 46 -43 74 -93 74c-63 0 -86 -42 -92 -74zM346 286l1 1z" />
    <glyph glyph-name="gdotaccent.ss03" horiz-adv-x="508" 
d="M251 537c-47 0 -85 38 -85 86s37 85 85 85s85 -37 85 -85s-37 -86 -85 -86zM254 84c143 -17 239 -33 239 -143c0 -112 -99 -166 -234 -166c-143 0 -242 61 -242 157c0 9 1 21 4 33l73 27c-37 21 -63 55 -63 110c0 42 15 74 41 100c-24 30 -38 69 -38 112
c0 115 98 190 211 190c39 0 77 -9 110 -26l80 68l79 -95l-74 -59c11 -25 18 -52 18 -83c0 -110 -84 -182 -208 -182c-34 0 -65 5 -93 16c-3 -6 -4 -11 -4 -17c0 -29 39 -35 101 -42zM247 379c-40 0 -62 -27 -62 -65c0 -37 17 -69 62 -69c44 0 61 32 61 69
c0 39 -22 65 -61 65zM266 -116c60 0 77 16 77 33c0 33 -61 35 -116 41c-9 1 -19 2 -29 4l-28 -28c-1 -2 -1 -5 -1 -7c0 -25 33 -43 97 -43z" />
    <glyph glyph-name="i.ss03" horiz-adv-x="263" 
d="M132 537c-47 0 -85 38 -85 86s37 85 85 85s85 -37 85 -85s-37 -86 -85 -86zM56 0v493h151v-493h-151z" />
    <glyph glyph-name="idieresis.ss03" horiz-adv-x="263" 
d="M29 537c-47 0 -85 38 -85 86s37 85 85 85s85 -37 85 -85s-37 -86 -85 -86zM235 537c-47 0 -85 38 -85 86s37 85 85 85s85 -37 85 -85s-37 -86 -85 -86zM56 0v493h151v-493h-151z" />
    <glyph glyph-name="i.loclTRK.ss03" horiz-adv-x="263" 
d="M132 537c-47 0 -85 38 -85 86s37 85 85 85s85 -37 85 -85s-37 -86 -85 -86zM56 0v493h151v-493h-151z" />
    <glyph glyph-name="uni1ECB.ss03" horiz-adv-x="263" 
d="M132 537c-47 0 -85 38 -85 86s37 85 85 85s85 -37 85 -85s-37 -86 -85 -86zM56 0v493h151v-493h-151zM132 -209c-47 0 -85 38 -85 86s37 85 85 85s85 -37 85 -85s-37 -86 -85 -86z" />
    <glyph glyph-name="iogonek.ss03" horiz-adv-x="263" 
d="M132 537c-47 0 -85 38 -85 86s37 85 85 85s85 -37 85 -85s-37 -86 -85 -86zM177 -107l78 -51c-23 -37 -57 -69 -117 -69c-72 0 -125 45 -125 111c0 67 50 102 76 116h-33v493h151v-493c-19 -5 -105 -46 -105 -100c0 -28 15 -35 32 -35c21 0 34 11 43 28z" />
    <glyph glyph-name="j.ss03" horiz-adv-x="265" 
d="M133 537c-47 0 -85 38 -85 86s37 85 85 85s85 -37 85 -85s-37 -86 -85 -86zM75 -215c-29 0 -65 6 -95 16l-1 120c15 -3 29 -5 40 -5c24 0 38 4 38 38v539h151v-571c0 -94 -55 -137 -133 -137z" />
    <glyph glyph-name="uni1ED9.ss03" horiz-adv-x="529" 
d="M105 537l160 183l160 -183h-114l-46 56l-46 -56h-114zM265 -11c-160 0 -254 123 -254 258s93 257 254 257c159 0 253 -121 253 -257c0 -135 -95 -258 -253 -258zM265 120c81 0 102 65 102 127s-20 126 -102 126s-103 -63 -103 -126c0 -60 20 -127 103 -127zM265 -209
c-47 0 -85 38 -85 86s37 85 85 85s85 -37 85 -85s-37 -86 -85 -86z" />
    <glyph glyph-name="odieresis.ss03" horiz-adv-x="529" 
d="M162 537c-47 0 -85 38 -85 86s37 85 85 85s85 -37 85 -85s-37 -86 -85 -86zM368 537c-47 0 -85 38 -85 86s37 85 85 85s85 -37 85 -85s-37 -86 -85 -86zM265 -11c-160 0 -254 123 -254 258s93 257 254 257c159 0 253 -121 253 -257c0 -135 -95 -258 -253 -258zM265 120
c81 0 102 65 102 127s-20 126 -102 126s-103 -63 -103 -126c0 -60 20 -127 103 -127z" />
    <glyph glyph-name="uni1EE3.ss03" horiz-adv-x="529" 
d="M509 530h104v-34c0 -73 -31 -141 -108 -164c9 -27 13 -56 13 -85c0 -135 -95 -258 -253 -258c-160 0 -254 123 -254 258s93 257 254 257c82 0 146 -32 190 -82c42 4 54 34 54 83v25zM265 120c81 0 102 65 102 127s-20 126 -102 126s-103 -63 -103 -126
c0 -60 20 -127 103 -127zM265 -38c48 0 85 -37 85 -85s-37 -86 -85 -86c-47 0 -85 38 -85 86s37 85 85 85z" />
    <glyph glyph-name="gdotaccent.ss01.ss03" horiz-adv-x="558" 
d="M281 537c-47 0 -85 38 -85 86s37 85 85 85s85 -37 85 -85s-37 -86 -85 -86zM349 493h152v-478c0 -159 -98 -233 -246 -233c-128 0 -191 55 -233 108l117 92c21 -30 50 -68 118 -68c41 0 92 14 92 101v53c-34 -39 -80 -51 -127 -51c-131 0 -207 95 -207 242
c0 144 73 245 203 245c46 0 96 -13 131 -50v39zM267 148c70 0 94 47 94 112c0 63 -22 116 -94 116c-73 0 -98 -54 -98 -117c0 -66 28 -111 98 -111z" />
    <glyph glyph-name="gdotaccent.ss02.ss03" horiz-adv-x="521" 
d="M261 537c-47 0 -85 38 -85 86s37 85 85 85s85 -37 85 -85s-37 -86 -85 -86zM325 93c47 0 176 0 176 -139c0 -102 -69 -169 -246 -169c-116 0 -249 29 -249 147c0 20 4 37 10 50l58 14c-31 21 -62 55 -62 107c0 50 26 87 69 117c-18 27 -28 60 -28 97
c0 111 93 187 210 187c41 0 77 -9 107 -24l77 65l76 -95l-69 -53c13 -26 20 -54 20 -84c0 -114 -97 -177 -211 -177c-34 0 -65 5 -92 16c-11 -7 -18 -19 -18 -30c0 -29 53 -29 84 -29h88zM266 386c-44 0 -62 -34 -62 -71c0 -38 19 -69 62 -69c41 0 61 32 61 69
c0 38 -20 71 -61 71zM256 -100c68 0 100 10 100 37c0 32 -39 30 -67 30h-109l-33 -26v-4c0 -15 0 -37 109 -37z" />
    <glyph glyph-name="udieresis.ss03" horiz-adv-x="572" 
d="M176 537c-47 0 -85 38 -85 86s37 85 85 85s85 -37 85 -85s-37 -86 -85 -86zM382 537c-47 0 -85 38 -85 86s37 85 85 85s85 -37 85 -85s-37 -86 -85 -86zM365 493h151v-493h-151v48c-36 -42 -84 -59 -137 -59c-131 0 -185 83 -185 199v305h151v-274c0 -48 7 -99 80 -99
c91 0 91 93 91 210v163z" />
    <glyph glyph-name="uni01D8.ss03" horiz-adv-x="572" 
d="M499 912l-166 -143h-109l113 143h162zM176 537c-47 0 -85 38 -85 86s37 85 85 85s85 -37 85 -85s-37 -86 -85 -86zM297 623c0 48 37 85 85 85s85 -37 85 -85s-37 -86 -85 -86c-47 0 -85 38 -85 86zM365 493h151v-493h-151v48c-36 -42 -84 -59 -137 -59
c-131 0 -185 83 -185 199v305h151v-274c0 -48 7 -99 80 -99c91 0 91 93 91 210v163z" />
    <glyph glyph-name="uni01DA.ss03" horiz-adv-x="572" 
d="M439 912l-160 -171l-160 171h115l45 -50l46 50h114zM176 537c-47 0 -85 38 -85 86s37 85 85 85s85 -37 85 -85s-37 -86 -85 -86zM297 623c0 48 37 85 85 85s85 -37 85 -85s-37 -86 -85 -86c-47 0 -85 38 -85 86zM365 493h151v-493h-151v48c-36 -42 -84 -59 -137 -59
c-131 0 -185 83 -185 199v305h151v-274c0 -48 7 -99 80 -99c91 0 91 93 91 210v163z" />
    <glyph glyph-name="uni01DC.ss03" horiz-adv-x="572" 
d="M334 769h-111l-153 143h160zM91 623c0 48 37 85 85 85s85 -37 85 -85s-37 -86 -85 -86c-47 0 -85 38 -85 86zM297 623c0 48 37 85 85 85s85 -37 85 -85s-37 -86 -85 -86c-47 0 -85 38 -85 86zM365 493h151v-493h-151v48c-36 -42 -84 -59 -137 -59
c-131 0 -185 83 -185 199v305h151v-274c0 -48 7 -99 80 -99c91 0 91 93 91 210v163z" />
    <glyph glyph-name="uni01D6.ss03" horiz-adv-x="572" 
d="M418 848v-87h-278v87h278zM176 537c-47 0 -85 38 -85 86s37 85 85 85s85 -37 85 -85s-37 -86 -85 -86zM297 623c0 48 37 85 85 85s85 -37 85 -85s-37 -86 -85 -86c-47 0 -85 38 -85 86zM365 493h151v-493h-151v48c-36 -42 -84 -59 -137 -59c-131 0 -185 83 -185 199v305
h151v-274c0 -48 7 -99 80 -99c91 0 91 93 91 210v163z" />
    <glyph glyph-name="uni1EE5.ss03" horiz-adv-x="572" 
d="M365 493h151v-493h-151v48c-36 -42 -84 -59 -137 -59c-131 0 -185 83 -185 199v305h151v-274c0 -48 7 -99 80 -99c91 0 91 93 91 210v163zM285 -38c48 0 85 -37 85 -85s-37 -86 -85 -86c-47 0 -85 38 -85 86s37 85 85 85z" />
    <glyph glyph-name="uni1EF1.ss03" horiz-adv-x="572" 
d="M480 600h104v-34c0 -59 -20 -115 -68 -146v-420h-151v48c-36 -42 -84 -59 -137 -59c-131 0 -185 83 -185 199v305h151v-274c0 -48 7 -99 80 -99c91 0 91 93 91 210v163h66c38 6 49 35 49 82v25zM285 -38c48 0 85 -37 85 -85s-37 -86 -85 -86c-47 0 -85 38 -85 86
s37 85 85 85z" />
    <glyph glyph-name="wdieresis.ss03" horiz-adv-x="709" 
d="M252 537c-47 0 -85 38 -85 86s37 85 85 85s85 -37 85 -85s-37 -86 -85 -86zM458 537c-47 0 -85 38 -85 86s37 85 85 85s85 -37 85 -85s-37 -86 -85 -86zM144 0l-156 493h160l71 -261l71 261h127l71 -259l72 259h161l-157 -493h-133l-77 278l-75 -278h-135z" />
    <glyph glyph-name="ydieresis.ss03" horiz-adv-x="503" 
d="M150 537c-47 0 -85 38 -85 86s37 85 85 85s85 -37 85 -85s-37 -86 -85 -86zM356 537c-47 0 -85 38 -85 86s37 85 85 85s85 -37 85 -85s-37 -86 -85 -86zM74 -204l91 221l-183 476h166l98 -304l112 304h165l-286 -697h-163z" />
    <glyph glyph-name="uni1EF5.ss03" horiz-adv-x="503" 
d="M74 -204l91 221l-183 476h166l98 -304l112 304h165l-286 -697h-163zM412 -240c-47 0 -85 38 -85 86s37 85 85 85s85 -37 85 -85s-37 -86 -85 -86z" />
    <glyph glyph-name="zdotaccent.ss03" horiz-adv-x="461" 
d="M230 537c-47 0 -85 38 -85 86s37 85 85 85s85 -37 85 -85s-37 -86 -85 -86zM223 126h210v-126h-412v98l221 269h-211v126h401v-105z" />
    <glyph glyph-name="T_h" horiz-adv-x="1052" 
d="M199 0v553h-204v144h688v-254c40 45 90 61 129 61c139 0 195 -120 195 -212v-292h-154v279c0 47 -17 87 -77 87c-65 0 -93 -50 -93 -104v-262h-155v553h-170v-553h-159z" />
    <glyph glyph-name="ordfeminine" unicode="&#xaa;" horiz-adv-x="401" 
d="M162 350c-72 0 -128 43 -128 113c0 74 61 107 134 107h94c0 11 -1 19 -4 26c-9 21 -28 34 -60 34c-47 0 -71 -28 -87 -50l-67 45c42 60 88 83 151 83c94 0 150 -58 150 -141v-208h-77l-2 31c-30 -27 -64 -40 -104 -40zM182 429c29 0 50 8 64 25c8 10 13 23 16 39h-88
c-31 0 -47 -13 -47 -32c0 -17 16 -32 55 -32z" />
    <glyph glyph-name="ordmasculine" unicode="&#xba;" horiz-adv-x="418" 
d="M209 350c-108 0 -179 82 -179 179s72 179 179 179c106 0 179 -82 179 -179c0 -98 -73 -179 -179 -179zM209 432c63 0 82 45 82 97c0 54 -19 97 -82 97s-82 -43 -82 -97c0 -52 18 -97 82 -97z" />
    <glyph glyph-name="uni0394" unicode="&#x394;" horiz-adv-x="577" 
d="M-20 0l283 697h37l285 -697h-605zM166 126h235l-119 311z" />
    <glyph glyph-name="uni03A9" unicode="&#x3a9;" horiz-adv-x="791" 
d="M752 349c0 -79 -37 -165 -98 -229h84v-120h-297v100c110 49 178 105 178 248c0 138 -89 233 -229 233c-139 0 -230 -93 -230 -234c0 -144 67 -202 178 -247v-100h-296v120h82c-60 62 -96 148 -96 228c0 202 155 359 361 359s363 -157 363 -358z" />
    <glyph glyph-name="uni03BC" unicode="&#x3bc;" horiz-adv-x="587" 
d="M57 -157v650h150v-272c0 -50 23 -93 85 -93c88 0 88 87 88 107v258h151v-493h-151v44c-32 -34 -80 -55 -125 -55c-27 0 -54 8 -76 25v-171h-122z" />
    <glyph glyph-name="pi" unicode="&#x3c0;" horiz-adv-x="564" 
d="M456 -11c-106 0 -113 74 -113 118v260h-143v-367h-126v367h-55v126h510v-126h-60v-252c0 -14 7 -19 15 -19c10 0 23 7 30 14l39 -92c-36 -23 -68 -29 -97 -29z" />
    <glyph glyph-name="zero" unicode="0" horiz-adv-x="598" 
d="M299 -10c-233 0 -253 222 -253 363c0 133 18 356 253 356c236 0 253 -225 253 -356c0 -141 -20 -363 -253 -363zM299 134c88 0 99 101 99 214c0 118 -11 216 -99 216s-99 -98 -99 -216c0 -113 11 -214 99 -214z" />
    <glyph glyph-name="one" unicode="1" horiz-adv-x="598" 
d="M268 697h151v-697h-151v471h-156v119h79c50 0 77 19 77 75v32z" />
    <glyph glyph-name="two" unicode="2" horiz-adv-x="597" 
d="M296 142h251v-142h-492v120c99 59 315 202 315 351c0 48 -22 88 -79 88c-76 0 -93 -73 -97 -127l-148 12c0 122 87 261 249 261c130 0 225 -91 225 -229c0 -119 -92 -258 -224 -334z" />
    <glyph glyph-name="three" unicode="3" horiz-adv-x="598" 
d="M294 -10c-138 0 -267 75 -267 237l150 9c0 -67 54 -102 122 -102c54 0 111 22 111 92c0 83 -78 78 -145 78v118c95 0 108 33 108 67c0 50 -36 74 -81 74c-50 0 -81 -31 -82 -80l-149 10c0 136 111 214 237 214c121 0 226 -71 226 -195c0 -58 -23 -105 -67 -130
c75 -33 104 -94 104 -163c0 -156 -131 -229 -267 -229z" />
    <glyph glyph-name="four" unicode="4" horiz-adv-x="598" 
d="M473 307h110v-144h-110v-163h-151v163h-312v88l333 446h130v-390zM198 307h124v174z" />
    <glyph glyph-name="five" unicode="5" horiz-adv-x="598" 
d="M313 487c146 0 244 -114 244 -240c0 -133 -108 -258 -263 -258c-138 0 -246 97 -261 217l148 25c2 -41 34 -98 111 -98c79 0 105 62 105 114c0 49 -25 99 -105 99c-54 0 -84 -27 -100 -54l-139 34l70 371h404v-144h-281l-16 -82c30 14 59 16 83 16z" />
    <glyph glyph-name="six" unicode="6" horiz-adv-x="597" 
d="M322 477c138 0 242 -103 242 -239c0 -148 -120 -249 -263 -249c-145 0 -265 102 -265 248c0 45 13 92 40 134l207 326h174l-150 -220h15zM301 133c61 0 110 38 110 105s-48 106 -110 106s-111 -38 -111 -106c0 -67 49 -105 111 -105z" />
    <glyph glyph-name="seven" unicode="7" horiz-adv-x="597" 
d="M50 697h505v-77l-290 -620h-174l273 553h-314v144z" />
    <glyph glyph-name="eight" unicode="8" horiz-adv-x="597" 
d="M298 -11c-143 0 -271 73 -271 222c0 68 25 127 84 168c-33 30 -53 67 -53 121c0 130 114 208 240 208s240 -78 240 -208c0 -54 -20 -91 -53 -121c59 -41 84 -100 84 -168c0 -149 -128 -222 -271 -222zM298 421c53 0 89 26 89 69c0 45 -33 74 -89 74s-89 -29 -89 -74
c0 -43 36 -69 89 -69zM298 132c71 0 120 32 120 94s-50 93 -120 93s-120 -31 -120 -93s49 -94 120 -94z" />
    <glyph glyph-name="nine" unicode="9" horiz-adv-x="597" 
d="M298 708c145 0 265 -102 265 -248c0 -45 -13 -92 -40 -134l-207 -326h-174l150 220h-15c-138 0 -242 103 -242 239c0 148 120 249 263 249zM298 353c62 0 111 38 111 106c0 67 -49 105 -111 105c-61 0 -110 -38 -110 -105s48 -106 110 -106z" />
    <glyph glyph-name="zero.lf" horiz-adv-x="568" 
d="M284 -10c-233 0 -253 222 -253 363c0 133 18 356 253 356c236 0 253 -225 253 -356c0 -141 -20 -363 -253 -363zM284 134c88 0 99 101 99 214c0 118 -11 216 -99 216s-99 -98 -99 -216c0 -113 11 -214 99 -214z" />
    <glyph glyph-name="one.lf" horiz-adv-x="368" 
d="M149 697h151v-697h-151v471h-156v119h79c50 0 77 19 77 75v32z" />
    <glyph glyph-name="two.lf" horiz-adv-x="537" 
d="M265 142h251v-142h-492v120c99 59 315 202 315 351c0 48 -22 88 -79 88c-76 0 -93 -73 -97 -127l-148 12c0 122 87 261 249 261c130 0 225 -91 225 -229c0 -119 -92 -258 -224 -334z" />
    <glyph glyph-name="three.lf" horiz-adv-x="556" 
d="M271 -10c-138 0 -267 75 -267 237l150 9c0 -67 54 -102 122 -102c54 0 111 22 111 92c0 83 -78 78 -145 78v118c95 0 108 33 108 67c0 50 -36 74 -81 74c-50 0 -81 -31 -82 -80l-149 10c0 136 111 214 237 214c121 0 226 -71 226 -195c0 -58 -23 -105 -67 -130
c75 -33 104 -94 104 -163c0 -156 -131 -229 -267 -229z" />
    <glyph glyph-name="four.lf" horiz-adv-x="562" 
d="M455 307h110v-144h-110v-163h-151v163h-312v88l333 446h130v-390zM180 307h124v174z" />
    <glyph glyph-name="five.lf" horiz-adv-x="563" 
d="M295 487c146 0 244 -114 244 -240c0 -133 -108 -258 -263 -258c-138 0 -246 97 -261 217l148 25c2 -41 34 -98 111 -98c79 0 105 62 105 114c0 49 -25 99 -105 99c-54 0 -84 -27 -100 -54l-139 34l70 371h404v-144h-281l-16 -82c30 14 59 16 83 16z" />
    <glyph glyph-name="six.lf" horiz-adv-x="535" 
d="M290 477c138 0 242 -103 242 -239c0 -148 -120 -249 -263 -249c-145 0 -265 102 -265 248c0 45 13 92 40 134l207 326h174l-150 -220h15zM269 133c61 0 110 38 110 105s-48 106 -110 106s-111 -38 -111 -106c0 -67 49 -105 111 -105z" />
    <glyph glyph-name="seven.lf" horiz-adv-x="497" 
d="M0 697h505v-77l-290 -620h-174l273 553h-314v144z" />
    <glyph glyph-name="eight.lf" horiz-adv-x="584" 
d="M292 -11c-143 0 -271 73 -271 222c0 68 25 127 84 168c-33 30 -53 67 -53 121c0 130 114 208 240 208s240 -78 240 -208c0 -54 -20 -91 -53 -121c59 -41 84 -100 84 -168c0 -149 -128 -222 -271 -222zM292 421c53 0 89 26 89 69c0 45 -33 74 -89 74s-89 -29 -89 -74
c0 -43 36 -69 89 -69zM292 132c71 0 120 32 120 94s-50 93 -120 93s-120 -31 -120 -93s49 -94 120 -94z" />
    <glyph glyph-name="nine.lf" horiz-adv-x="535" 
d="M266 708c145 0 265 -102 265 -248c0 -45 -13 -92 -40 -134l-207 -326h-174l150 220h-15c-138 0 -242 103 -242 239c0 148 120 249 263 249zM266 353c62 0 111 38 111 106c0 67 -49 105 -111 105c-61 0 -110 -38 -110 -105s48 -106 110 -106z" />
    <glyph glyph-name="fraction" unicode="&#x2044;" horiz-adv-x="173" 
d="M-185 0l436 697h106l-436 -697h-106z" />
    <glyph glyph-name="period" unicode="." horiz-adv-x="294" 
d="M77 0v142h140v-142h-140z" />
    <glyph glyph-name="comma" unicode="," horiz-adv-x="295" 
d="M53 -145l52 307h169l-123 -307h-98z" />
    <glyph glyph-name="colon" unicode=":" horiz-adv-x="314" 
d="M79 327v144h156v-144h-156zM79 0v142h156v-142h-156z" />
    <glyph glyph-name="semicolon" unicode=";" horiz-adv-x="308" 
d="M92 327v144h157v-144h-157zM40 -145l53 276h169l-122 -276h-100z" />
    <glyph glyph-name="ellipsis" unicode="&#x2026;" horiz-adv-x="702" 
d="M77 0v142h140v-142h-140zM281 0v142h140v-142h-140zM485 0v142h140v-142h-140z" />
    <glyph glyph-name="exclam" unicode="!" horiz-adv-x="296" 
d="M91 219l-17 478h149l-18 -478h-114zM70 0v142h156v-142h-156z" />
    <glyph glyph-name="exclamdown" unicode="&#xa1;" horiz-adv-x="296" 
d="M226 493v-142h-156v142h156zM205 274l17 -478h-149l18 478h114z" />
    <glyph glyph-name="question" unicode="?" horiz-adv-x="465" 
d="M165 217v26c0 181 159 179 159 275c0 44 -33 65 -88 65c-70 0 -103 -36 -102 -106h-133c0 148 97 231 238 231c113 0 216 -53 216 -193c0 -176 -163 -162 -163 -283v-15h-127zM153 0v142h155v-142h-155z" />
    <glyph glyph-name="questiondown" unicode="&#xbf;" horiz-adv-x="464" 
d="M312 493v-142h-155v142h155zM300 276v-26c0 -181 -159 -179 -159 -275c0 -44 33 -65 88 -65c70 0 103 36 102 106h133c0 -148 -97 -231 -238 -231c-113 0 -216 53 -216 193c0 176 163 162 163 283v15h127z" />
    <glyph glyph-name="periodcentered" unicode="&#xb7;" horiz-adv-x="266" 
d="M133 289c-45 0 -77 34 -77 78c0 41 34 75 77 75c42 0 77 -32 77 -75s-33 -78 -77 -78z" />
    <glyph glyph-name="bullet" unicode="&#x2022;" horiz-adv-x="330" 
d="M165 120c-65 0 -117 53 -117 117s52 118 117 118c64 0 117 -53 117 -118c0 -63 -52 -117 -117 -117z" />
    <glyph glyph-name="asterisk" unicode="*" horiz-adv-x="386" 
d="M144 408l-83 58l67 70l-97 15l32 91l90 -35l-13 90h103l-11 -90l90 35l30 -91l-97 -15l67 -70l-82 -58l-50 96z" />
    <glyph glyph-name="numbersign" unicode="#" horiz-adv-x="658" 
d="M89 0l44 200h-111v106h133l20 94h-113v111h136l45 186h119l-45 -191h94l42 191h119l-46 -191h110v-106h-132l-22 -94h114v-106h-136l-44 -200h-117l44 200h-95l-42 -200h-117zM274 306h94l18 94h-94z" />
    <glyph glyph-name="slash" unicode="/" horiz-adv-x="411" 
d="M-33 -212l364 909h113l-365 -909h-112z" />
    <glyph glyph-name="backslash" unicode="\" horiz-adv-x="411" 
d="M448 -212h-112l-365 909h113z" />
    <glyph glyph-name="uni2023" unicode="&#x2023;" horiz-adv-x="442" 
d="M79 55v431l366 -215z" />
    <glyph glyph-name="twodotenleader" unicode="&#x2025;" horiz-adv-x="510" 
d="M77 0v142h152v-142h-152zM281 0v142h152v-142h-152z" />
    <glyph glyph-name="period.ss03" horiz-adv-x="279" 
d="M139 -11c-47 0 -85 38 -85 86s37 85 85 85s85 -37 85 -85s-37 -86 -85 -86z" />
    <glyph glyph-name="colon.ss03" horiz-adv-x="273" 
d="M136 301c-47 0 -85 38 -85 86s37 85 85 85s85 -37 85 -85s-37 -86 -85 -86zM136 -11c-47 0 -85 38 -85 86s37 85 85 85s85 -37 85 -85s-37 -86 -85 -86z" />
    <glyph glyph-name="semicolon.ss03" horiz-adv-x="289" 
d="M162 301c-47 0 -85 38 -85 86s37 85 85 85s85 -37 85 -85s-37 -86 -85 -86zM29 -145l53 276h169l-122 -276h-100z" />
    <glyph glyph-name="ellipsis.ss03" horiz-adv-x="672" 
d="M140 -11c-47 0 -85 38 -85 86c0 47 37 84 85 84s84 -37 84 -84c0 -48 -36 -86 -84 -86zM336 -11c-47 0 -84 38 -84 86c0 47 36 84 84 84s84 -37 84 -84c0 -48 -36 -86 -84 -86zM532 -11c-47 0 -84 38 -84 86c0 47 36 84 84 84s85 -37 85 -84c0 -48 -37 -86 -85 -86z" />
    <glyph glyph-name="exclam.ss03" horiz-adv-x="286" 
d="M85 219l-17 478h149l-18 -478h-114zM142 -11c-47 0 -85 38 -85 87c0 48 36 85 85 85s85 -37 85 -85c0 -49 -36 -87 -85 -87z" />
    <glyph glyph-name="exclamdown.ss03" horiz-adv-x="288" 
d="M144 333c-48 0 -85 37 -85 85s37 86 85 86c47 0 85 -38 85 -86s-37 -85 -85 -85zM69 -204l18 478h114l17 -478h-149z" />
    <glyph glyph-name="question.ss03" horiz-adv-x="464" 
d="M165 217v26c0 181 159 179 159 275c0 44 -33 65 -88 65c-70 0 -103 -36 -102 -106h-133c0 148 97 231 238 231c113 0 216 -53 216 -193c0 -176 -163 -162 -163 -283v-15h-127zM232 -11c-47 0 -85 38 -85 86s37 85 85 85s85 -37 85 -85s-37 -86 -85 -86z" />
    <glyph glyph-name="questiondown.ss03" horiz-adv-x="463" 
d="M232 333c-48 0 -85 37 -85 85s37 86 85 86c47 0 85 -38 85 -86s-37 -85 -85 -85zM225 -215c-113 0 -216 53 -216 193c0 176 163 162 163 283v15h127v-26c0 -181 -159 -179 -159 -275c0 -44 33 -65 88 -65c70 0 103 36 102 106h133c0 -148 -97 -231 -238 -231z" />
    <glyph glyph-name="twodotenleader.ss03" horiz-adv-x="477" 
d="M139 -11c-47 0 -85 38 -85 86s37 85 85 85c49 0 85 -37 85 -85s-36 -86 -85 -86zM337 -11c-48 0 -85 38 -85 86s36 85 85 85c48 0 85 -37 85 -85s-37 -86 -85 -86z" />
    <glyph glyph-name="parenleft" unicode="(" horiz-adv-x="275" 
d="M154 -82c-68 73 -122 210 -122 428s54 355 122 428h135c-93 -116 -138 -245 -138 -428s45 -312 138 -428h-135z" />
    <glyph glyph-name="parenright" unicode=")" horiz-adv-x="275" 
d="M121 -82h-135c93 116 138 245 138 428s-45 312 -138 428h135c68 -73 122 -210 122 -428s-54 -355 -122 -428z" />
    <glyph glyph-name="braceleft" unicode="{" horiz-adv-x="293" 
d="M189 -82c-79 0 -115 59 -115 149v131c0 74 -42 80 -68 91v96c25 11 68 16 68 85v124c0 91 41 148 112 148h92v-95h-40c-32 0 -36 -31 -36 -56v-124c0 -74 -30 -104 -74 -128v-6c40 -20 74 -50 74 -132v-132c0 -25 3 -54 39 -54h37v-97h-89z" />
    <glyph glyph-name="braceright" unicode="}" horiz-adv-x="293" 
d="M15 -82v97h37c32 0 39 21 39 54v132c0 79 31 111 75 132v6c-42 21 -75 53 -75 128v124c0 31 -9 56 -36 56h-40v95h92c71 0 112 -57 112 -148v-124c0 -66 41 -74 68 -85v-96c-29 -11 -68 -20 -68 -91v-131c0 -91 -37 -149 -115 -149h-89z" />
    <glyph glyph-name="bracketleft" unicode="[" horiz-adv-x="299" 
d="M68 -92v879h229v-100h-107v-678h107v-101h-229z" />
    <glyph glyph-name="bracketright" unicode="]" horiz-adv-x="298" 
d="M1 -92v101h108v678h-108v100h229v-879h-229z" />
    <glyph glyph-name="hyphen" unicode="-" horiz-adv-x="409" 
d="M54 234v112h301v-112h-301z" />
    <glyph glyph-name="uni00AD" unicode="&#xad;" horiz-adv-x="478" 
d="M54 234v112h370v-112h-370z" />
    <glyph glyph-name="endash" unicode="&#x2013;" horiz-adv-x="498" 
d="M54 234v112h390v-112h-390z" />
    <glyph glyph-name="emdash" unicode="&#x2014;" horiz-adv-x="1010" 
d="M0 234v112h1010v-112h-1010z" />
    <glyph glyph-name="uni2015" unicode="&#x2015;" horiz-adv-x="741" 
d="M54 234v112h633v-112h-633z" />
    <glyph glyph-name="underscore" unicode="_" horiz-adv-x="539" 
d="M54 -114v114h431v-114h-431z" />
    <glyph glyph-name="quotesinglbase" unicode="&#x201a;" horiz-adv-x="274" 
d="M44 -145l46 276h175l-123 -276h-98z" />
    <glyph glyph-name="quotedblbase" unicode="&#x201e;" horiz-adv-x="492" 
d="M44 -145l46 276h175l-123 -276h-98zM263 -145l45 276h175l-122 -276h-98z" />
    <glyph glyph-name="quotedblleft" unicode="&#x201c;" horiz-adv-x="480" 
d="M9 420l122 277h99l-46 -277h-175zM215 420l121 277h99l-45 -277h-175z" />
    <glyph glyph-name="quotedblright" unicode="&#x201d;" horiz-adv-x="480" 
d="M44 421l46 276h175l-123 -276h-98zM250 421l46 276h174l-121 -276h-99z" />
    <glyph glyph-name="quoteleft" unicode="&#x2018;" horiz-adv-x="275" 
d="M9 420l122 277h99l-46 -277h-175z" />
    <glyph glyph-name="quoteright" unicode="&#x2019;" horiz-adv-x="274" 
d="M44 421l46 276h175l-123 -276h-98z" />
    <glyph glyph-name="guillemotleft" unicode="&#xab;" horiz-adv-x="597" 
d="M254 32l-271 220l271 220v-160l-94 -60l94 -60v-160zM537 32l-271 220l271 220v-160l-94 -60l94 -60v-160z" />
    <glyph glyph-name="guillemotright" unicode="&#xbb;" horiz-adv-x="599" 
d="M65 32v160l94 60l-94 60v160l271 -220zM348 32v160l94 60l-94 60v160l271 -220z" />
    <glyph glyph-name="guilsinglleft" unicode="&#x2039;" horiz-adv-x="314" 
d="M254 32l-271 220l271 220v-160l-94 -60l94 -60v-160z" />
    <glyph glyph-name="guilsinglright" unicode="&#x203a;" horiz-adv-x="316" 
d="M60 32v160l94 60l-94 60v160l271 -220z" />
    <glyph glyph-name="quotedbl" unicode="&#x22;" horiz-adv-x="441" 
d="M67 407v290h126v-290h-126zM247 407v290h127v-290h-127z" />
    <glyph glyph-name="quotesingle" unicode="'" horiz-adv-x="260" 
d="M67 421v276h126v-276h-126z" />
    <glyph glyph-name="uni00A0" unicode="&#xa0;" horiz-adv-x="278" 
 />
    <glyph glyph-name="uni20B3" unicode="&#x20b3;" horiz-adv-x="806" 
d="M57 0l43 103h-49v134h103l20 47h-123v134h177l119 279h115l116 -279h177v-134h-124l20 -47h104v-134h-50l44 -103h-169l-40 103h-273l-40 -103h-170zM373 418h62l-31 75zM317 237h173l-17 47h-138z" />
    <glyph glyph-name="cent" unicode="&#xa2;" horiz-adv-x="517" 
d="M275 120c39 0 71 29 80 73l136 -53c-27 -76 -84 -129 -160 -145v-107l-110 -1v107c-133 25 -193 140 -193 251c0 115 62 229 193 254v102h110v-102c77 -15 135 -63 165 -145l-142 -57c-7 46 -38 76 -78 76c-70 0 -93 -64 -93 -128c0 -63 21 -125 92 -125z" />
    <glyph glyph-name="currency" unicode="&#xa4;" horiz-adv-x="627" 
d="M134 51l-79 83l54 53c-45 76 -44 172 0 246l-53 52l80 84l54 -57c77 48 172 48 246 2l54 54l81 -80l-54 -54c46 -76 46 -171 0 -248l54 -52l-80 -83l-55 55c-73 -45 -170 -46 -248 0zM222 222c51 -50 132 -49 179 0c48 50 51 125 -1 176c-50 49 -126 49 -176 -1
c-47 -47 -47 -131 -2 -175z" />
    <glyph glyph-name="dollar" unicode="$" horiz-adv-x="564" 
d="M545 216c0 -115 -77 -199 -185 -224v-109l-110 -1v106c-124 15 -218 97 -237 217l156 39c7 -82 57 -120 127 -120c51 0 93 25 93 78c0 32 -32 56 -123 93c-149 60 -203 115 -203 222c0 104 73 181 187 195v96h110v-101c65 -17 117 -60 151 -127l-130 -81
c-21 51 -55 77 -95 77c-36 0 -66 -23 -66 -56c0 -34 27 -58 127 -97c150 -58 198 -108 198 -207z" />
    <glyph glyph-name="Euro" unicode="&#x20ac;" horiz-adv-x="660" 
d="M422 138c60 0 102 20 132 45l81 -131c-53 -42 -128 -63 -213 -63c-169 0 -290 95 -332 239h-59l1 100h42v17c0 10 0 20 1 30h-41v100h59c43 142 161 233 327 233c94 0 165 -24 218 -66l-82 -131c-31 28 -74 49 -136 49c-73 0 -128 -32 -159 -85h234l-1 -100h-265
c-1 -9 -1 -19 -1 -29c0 -6 0 -12 1 -18h265l-3 -100h-234c32 -55 89 -90 165 -90z" />
    <glyph glyph-name="florin" unicode="&#x192;" horiz-adv-x="428" 
d="M19 -210v114c93 0 117 28 117 134v343h-89v112h89v61c0 93 53 164 148 164c62 0 107 -21 140 -58l-81 -96c-15 17 -29 27 -49 27c-11 0 -31 -5 -31 -37v-61h101v-112h-101v-356c0 -166 -91 -235 -244 -235z" />
    <glyph glyph-name="uni20B4" unicode="&#x20b4;" horiz-adv-x="690" 
d="M547 496h105v-99h-611v99h362c2 6 4 13 4 20c0 33 -29 53 -66 53c-31 0 -65 -20 -86 -53l-130 80c51 79 145 112 224 112c119 0 204 -74 204 -164c0 -12 -1 -29 -6 -48zM41 250v98h611v-98h-375c-24 -22 -35 -46 -35 -66c0 -28 26 -53 89 -53c53 0 103 20 121 79l152 -48
c-39 -115 -156 -171 -270 -171c-148 0 -244 82 -244 179c0 24 7 52 20 80h-69z" />
    <glyph glyph-name="uni20B1" unicode="&#x20b1;" horiz-adv-x="635" 
d="M625 515v-50h-42c-11 -108 -94 -185 -240 -185h-89v-280h-156v465h-54v50h54v182h245c169 0 232 -74 240 -182h42zM254 550v-35h170c-8 25 -31 35 -82 35h-88zM342 427c51 0 75 10 82 38h-170v-38h88z" />
    <glyph glyph-name="uni20BD" unicode="&#x20bd;" horiz-adv-x="643" 
d="M136 0v112h-87v126h87v55h-87v134h87v270h238c156 0 247 -79 247 -210c0 -134 -95 -194 -247 -194h-82v-55h167v-126h-167v-112h-156zM292 427h82c30 0 92 0 92 62c0 61 -61 61 -92 61h-82v-123z" />
    <glyph glyph-name="sterling" unicode="&#xa3;" horiz-adv-x="575" 
d="M229 126h311v-126h-492v123c52 28 113 77 113 128v27h-112v126h86c-7 29 -19 72 -19 109c0 112 75 204 211 204c113 0 194 -62 210 -156l-116 -44c-5 51 -48 74 -91 74c-55 0 -88 -31 -88 -81c0 -34 11 -82 23 -106h187v-126h-167v-28c0 -54 -14 -98 -56 -124z" />
    <glyph glyph-name="uni20B8" unicode="&#x20b8;" horiz-adv-x="643" 
d="M39 570v127h565v-127h-565zM243 0v386h-204v127h565v-127h-204v-386h-157z" />
    <glyph glyph-name="yen" unicode="&#xa5;" horiz-adv-x="682" 
d="M260 0v100h-143v122h143v47h-143v122h71l-188 306h191l149 -271l150 271h192l-187 -306h69v-122h-140v-47h140v-122h-140v-100h-164z" />
    <glyph glyph-name="plus" unicode="+" horiz-adv-x="561" 
d="M218 51v195h-195v126h195v193h125v-193h195v-126h-195v-195h-125z" />
    <glyph glyph-name="minus" unicode="&#x2212;" horiz-adv-x="606" 
d="M82 248v126h442v-126h-442z" />
    <glyph glyph-name="multiply" unicode="&#xd7;" horiz-adv-x="504" 
d="M113 61l-87 86l138 140l-138 138l87 88l138 -139l139 139l88 -88l-138 -138l138 -140l-88 -86l-139 137z" />
    <glyph glyph-name="divide" unicode="&#xf7;" horiz-adv-x="506" 
d="M171 412v142h164v-142h-164zM25 248v126h456v-126h-456zM171 71v143h164v-143h-164z" />
    <glyph glyph-name="equal" unicode="=" horiz-adv-x="590" 
d="M84 389v125h422v-125h-422zM84 152v125h422v-125h-422z" />
    <glyph glyph-name="notequal" unicode="&#x2260;" horiz-adv-x="634" 
d="M45 0l97 152h-87v125h163l71 112h-234v125h310l117 183h105l-117 -183h106v-125h-181l-71 -112h252v-125h-328l-97 -152h-106z" />
    <glyph glyph-name="greater" unicode="&#x3e;" horiz-adv-x="635" 
d="M76 -35l-56 99l391 223l-391 222l56 99l564 -321z" />
    <glyph glyph-name="less" unicode="&#x3c;" horiz-adv-x="635" 
d="M559 -35l-564 322l564 321l56 -99l-390 -222l390 -223z" />
    <glyph glyph-name="greaterequal" unicode="&#x2265;" horiz-adv-x="663" 
d="M87 56l-56 99l391 223l-391 222l56 99l565 -321zM41 -114v114h594v-114h-594z" />
    <glyph glyph-name="lessequal" unicode="&#x2264;" horiz-adv-x="662" 
d="M575 56l-564 322l564 321l56 -99l-390 -222l390 -223zM28 -114v114h594v-114h-594z" />
    <glyph glyph-name="plusminus" unicode="&#xb1;" horiz-adv-x="623" 
d="M254 93v199h-220v113h220v199h113v-199h220v-113h-220v-199h-113zM34 -114v114h556v-114h-556z" />
    <glyph glyph-name="approxequal" unicode="&#x2248;" horiz-adv-x="576" 
d="M375 343c-127 0 -114 109 -176 109c-21 0 -32 -32 -32 -77h-114c0 105 58 176 146 176c130 0 120 -107 176 -107c20 0 35 39 35 87h113c0 -110 -58 -188 -148 -188zM375 86c-127 0 -114 107 -176 107c-21 0 -32 -30 -32 -76h-114c0 104 57 177 146 177
c130 0 120 -107 176 -107c20 0 35 38 35 88h113c0 -110 -58 -189 -148 -189z" />
    <glyph glyph-name="asciitilde" unicode="~" horiz-adv-x="574" 
d="M374 153c-127 0 -114 107 -176 107c-21 0 -32 -32 -32 -76h-114c0 104 57 177 146 177c130 0 120 -109 176 -109c20 0 35 39 35 88h113c0 -110 -58 -187 -148 -187z" />
    <glyph glyph-name="logicalnot" unicode="&#xac;" horiz-adv-x="616" 
d="M388 143v116h-335v134h479v-250h-144z" />
    <glyph glyph-name="asciicircum" unicode="^" horiz-adv-x="615" 
d="M-1 197l308 550l309 -550h-159l-150 270l-148 -270h-160z" />
    <glyph glyph-name="infinity" unicode="&#x221e;" horiz-adv-x="868" 
d="M245 174c-130 0 -200 77 -200 190c0 114 70 191 200 191c59 0 135 -25 191 -89c51 64 127 89 186 89c130 0 201 -78 201 -191c0 -112 -71 -190 -201 -190c-61 0 -136 25 -186 88c-56 -63 -131 -88 -191 -88zM264 296c27 0 76 21 104 68c-29 48 -77 70 -104 70
c-55 0 -85 -22 -85 -70c0 -49 30 -68 85 -68zM602 296c56 0 87 19 87 68c0 48 -31 70 -87 70c-23 0 -71 -18 -100 -70c30 -54 78 -68 100 -68z" />
    <glyph glyph-name="integral" unicode="&#x222b;" horiz-adv-x="403" 
d="M0 -220v127c100 0 148 23 148 127v528c0 90 69 156 152 156c40 0 81 -15 113 -44l-80 -96c-15 11 -23 13 -33 13c-13 0 -26 -4 -26 -34v-527c0 -161 -113 -250 -274 -250z" />
    <glyph glyph-name="uni2126" unicode="&#x2126;" horiz-adv-x="818" 
d="M771 349c0 -79 -37 -165 -98 -229h84v-120h-297v100c110 49 178 105 178 248c0 138 -89 233 -229 233c-139 0 -230 -93 -230 -234c0 -144 67 -202 178 -247v-100h-296v120h82c-60 62 -96 148 -96 228c0 202 155 359 361 359s363 -157 363 -358z" />
    <glyph glyph-name="uni2206" unicode="&#x2206;" horiz-adv-x="605" 
d="M0 0l283 697h37l285 -697h-605zM186 126h235l-119 311z" />
    <glyph glyph-name="product" unicode="&#x220f;" horiz-adv-x="640" 
d="M92 0v571h-33v126h523v-126h-34v-571h-127v571h-202v-571h-127z" />
    <glyph glyph-name="summation" unicode="&#x2211;" horiz-adv-x="613" 
d="M571 697v-143h-285l214 -206l-213 -205h284v-143h-553v63l277 285l-277 286v63h553z" />
    <glyph glyph-name="radical" unicode="&#x221a;" horiz-adv-x="562" 
d="M227 -148l-141 410h-80v127h172l57 -214l195 522h135z" />
    <glyph glyph-name="uni00B5" unicode="&#xb5;" horiz-adv-x="624" 
d="M85 -157v650h150v-272c0 -50 23 -93 85 -93c88 0 88 87 88 107v258h151v-493h-151v44c-43 -42 -69 -55 -119 -55c-40 0 -64 8 -82 22v-168h-122z" />
    <glyph glyph-name="partialdiff" unicode="&#x2202;" horiz-adv-x="597" 
d="M258 -6c-147 0 -234 98 -234 230c0 160 129 268 266 268c62 0 111 -22 142 -57c-3 29 -8 54 -17 76c-21 54 -60 85 -114 85c-31 0 -82 -9 -107 -67l-110 35c36 90 118 142 221 142c159 0 253 -122 253 -329c0 -231 -116 -383 -300 -383zM271 123c96 0 149 89 143 160
c-5 55 -45 86 -108 86c-105 0 -141 -86 -141 -145c0 -68 48 -101 106 -101z" />
    <glyph glyph-name="percent" unicode="%" horiz-adv-x="666" 
d="M171 382c-84 0 -152 62 -152 163c0 102 67 163 149 163c86 0 150 -71 150 -164c0 -89 -62 -162 -147 -162zM63 0l436 697h106l-436 -697h-106zM171 483c26 0 46 26 46 61c0 42 -22 63 -49 63c-26 0 -48 -16 -48 -62c0 -45 23 -62 51 -62zM499 -11c-84 0 -151 61 -151 164
c0 100 65 162 148 162c86 0 151 -71 151 -163c0 -90 -63 -163 -148 -163zM499 90c27 0 47 25 47 62c0 41 -22 62 -50 62c-25 0 -47 -17 -47 -61c0 -47 24 -63 50 -63z" />
    <glyph glyph-name="uni2031" unicode="&#x2031;" horiz-adv-x="1316" 
d="M171 382c-84 0 -152 62 -152 163c0 102 67 163 149 163c86 0 150 -71 150 -164c0 -89 -62 -162 -147 -162zM63 0l436 697h106l-436 -697h-106zM171 483c26 0 46 26 46 61c0 42 -22 63 -49 63c-26 0 -48 -16 -48 -62c0 -45 23 -62 51 -62zM499 -11c-84 0 -151 61 -151 164
c0 100 65 162 148 162c86 0 151 -71 151 -163c0 -90 -63 -163 -148 -163zM827 -11c-83 0 -150 62 -150 164c0 100 66 162 147 162c86 0 151 -71 151 -163s-64 -163 -148 -163zM1157 -11c-85 0 -152 62 -152 164c0 100 66 162 149 162c85 0 150 -72 150 -163
c0 -90 -63 -163 -147 -163zM499 90c27 0 47 25 47 62c0 41 -22 62 -50 62c-25 0 -47 -17 -47 -61c0 -47 24 -63 50 -63zM827 90c28 0 48 25 48 62c0 41 -23 62 -51 62c-24 0 -47 -16 -47 -61c0 -47 24 -63 50 -63zM1157 90c26 0 46 25 46 62c0 42 -23 62 -49 62
s-48 -16 -48 -61c0 -46 23 -63 51 -63z" />
    <glyph glyph-name="perthousand" unicode="&#x2030;" horiz-adv-x="987" 
d="M171 382c-84 0 -152 62 -152 163c0 102 67 163 149 163c86 0 150 -71 150 -164c0 -89 -62 -162 -147 -162zM63 0l436 697h106l-436 -697h-106zM171 483c26 0 46 26 46 61c0 42 -22 63 -49 63c-26 0 -48 -16 -48 -62c0 -45 23 -62 51 -62zM499 -11c-84 0 -151 61 -151 164
c0 100 65 162 148 162c86 0 151 -71 151 -163c0 -90 -63 -163 -148 -163zM827 -11c-83 0 -150 62 -150 164c0 100 66 162 147 162c86 0 151 -71 151 -163s-64 -163 -148 -163zM499 90c27 0 47 25 47 62c0 41 -22 62 -50 62c-25 0 -47 -17 -47 -61c0 -47 24 -63 50 -63z
M827 90c28 0 48 25 48 62c0 41 -23 62 -51 62c-24 0 -47 -16 -47 -61c0 -47 24 -63 50 -63z" />
    <glyph glyph-name="divide.ss03" horiz-adv-x="496" 
d="M248 421c-47 0 -85 38 -85 86s37 85 85 85s85 -37 85 -85s-37 -86 -85 -86zM20 248v126h456v-126h-456zM248 33c-47 0 -85 38 -85 86s37 85 85 85s85 -37 85 -85c0 -49 -37 -86 -85 -86z" />
    <glyph glyph-name="arrowright" unicode="&#x2192;" horiz-adv-x="1114" 
d="M554 -25l-51 100l283 160l-786 -1v112l786 -2l-283 161l51 100l565 -316z" />
    <glyph glyph-name="arrowleft" unicode="&#x2190;" horiz-adv-x="1127" 
d="M560 0l-565 315l565 313l50 -100l-279 -156l783 -1v-113l-784 1l280 -159z" />
    <glyph glyph-name="lozenge" unicode="&#x25ca;" horiz-adv-x="590" 
d="M197 0l-190 348l190 349h196l190 -349l-190 -348h-196zM290 78h10l134 270l-134 271h-10l-136 -271z" />
    <glyph glyph-name="uniF8FF" unicode="&#xf8ff;" horiz-adv-x="798" 
d="M399 -10c-209 0 -378 170 -378 378s169 378 378 378s378 -170 378 -378s-169 -378 -378 -378zM399 26c189 0 342 154 342 342s-153 342 -342 342s-342 -154 -342 -342s153 -342 342 -342zM183 217c-10 0 -18 8 -18 18v265c0 10 8 18 18 18s18 -8 18 -18v-265
c0 -10 -8 -18 -18 -18zM399 217c-10 0 -18 8 -18 18v265c0 10 8 18 18 18s18 -8 18 -18v-265c0 -10 -8 -18 -18 -18zM617 217c-5 0 -10 2 -13 5l-145 134c-4 3 -5 8 -5 12s2 9 5 12l143 131c5 5 9 7 14 7c6 0 17 -5 17 -17c0 -4 -1 -8 -5 -12l-132 -121l132 -122
c3 -3 5 -7 5 -12c0 -8 -7 -17 -16 -17zM255 350c-10 0 -18 8 -18 18s8 18 18 18h72c10 0 18 -8 18 -18s-8 -18 -18 -18h-72z" />
    <glyph glyph-name="at" unicode="@" horiz-adv-x="951" 
d="M481 705c282 0 448 -203 448 -434c0 -166 -86 -281 -231 -281c-47 0 -85 12 -110 37c-14 15 -24 35 -28 59c-32 -49 -79 -68 -133 -68c-121 0 -179 94 -179 203c0 142 98 305 246 305c56 0 99 -23 109 -64l9 41h106c-56 54 -136 86 -235 86c-209 0 -339 -141 -339 -336
c0 -211 153 -312 324 -312c48 0 84 8 118 27l42 -111c-46 -18 -93 -28 -156 -28c-243 0 -445 146 -445 423c0 261 180 453 454 453zM715 99c80 0 98 89 98 161c0 92 -29 172 -82 230c-26 -148 -63 -282 -63 -338c0 -46 25 -53 47 -53zM441 138c71 0 127 79 127 167
c0 54 -23 101 -79 101c-77 0 -126 -88 -126 -167c0 -53 22 -101 78 -101z" />
    <glyph glyph-name="ampersand" unicode="&#x26;" horiz-adv-x="669" 
d="M658 55l-107 -95l-84 96c-60 -47 -129 -69 -210 -69c-134 0 -242 60 -242 181c0 102 76 164 155 214c-29 28 -76 82 -76 154c0 109 106 170 202 170c102 0 192 -70 192 -171c0 -74 -47 -128 -106 -174l82 -91c15 32 29 70 40 113l134 -22c-21 -79 -48 -144 -79 -196z
M239 540c0 -29 25 -67 44 -89c38 26 65 53 65 87c0 26 -15 50 -51 50c-31 0 -58 -18 -58 -48zM247 115c51 0 94 14 131 41l-111 126c-58 -39 -105 -74 -105 -117c0 -38 37 -50 85 -50z" />
    <glyph glyph-name="paragraph" unicode="&#xb6;" horiz-adv-x="595" 
d="M233 -121v428c-116 0 -224 72 -224 195s108 195 224 195h83v-818h-83zM425 -121v818h85v-818h-85z" />
    <glyph glyph-name="section" unicode="&#xa7;" horiz-adv-x="574" 
d="M278 -227c-85 0 -172 39 -220 128l131 80c19 -42 59 -68 94 -68c38 0 66 20 66 52c0 49 -65 70 -127 94c-87 34 -198 79 -198 214c0 63 23 112 63 150c-12 23 -20 52 -20 85c0 132 108 200 229 200c92 0 174 -43 220 -127l-131 -80c-19 41 -58 68 -94 68
c-38 0 -66 -20 -66 -53c0 -45 58 -67 126 -93c87 -34 199 -78 199 -213c0 -62 -23 -114 -62 -151c11 -23 18 -53 18 -86c0 -131 -106 -200 -228 -200zM382 160c8 11 11 22 11 36c0 50 -58 73 -122 99c-19 8 -41 13 -79 27c-8 -10 -11 -24 -11 -35c0 -50 57 -74 123 -101
c11 -5 40 -12 78 -26z" />
    <glyph glyph-name="copyright" unicode="&#xa9;" horiz-adv-x="825" 
d="M413 -16c-212 0 -384 141 -384 364s172 365 384 365c211 0 383 -142 383 -365s-172 -364 -383 -364zM413 78c161 0 290 101 290 270c0 170 -129 271 -290 271s-291 -101 -291 -271c0 -169 130 -270 291 -270zM423 148c-134 0 -193 103 -193 199c0 101 61 201 192 201
c81 0 144 -38 174 -119l-117 -45c-5 26 -25 52 -57 52c-50 0 -68 -47 -68 -89s17 -86 68 -86c30 0 51 22 58 50l111 -43c-25 -74 -87 -120 -168 -120z" />
    <glyph glyph-name="registered" unicode="&#xae;" horiz-adv-x="825" 
d="M413 -16c-212 0 -384 141 -384 364s172 365 384 365c211 0 383 -142 383 -365s-172 -364 -383 -364zM413 78c161 0 290 101 290 270c0 170 -129 271 -290 271s-291 -101 -291 -271c0 -169 130 -270 291 -270zM281 147v403h140c84 0 145 -52 145 -124
c0 -42 -28 -85 -71 -105l110 -174h-113l-94 165h-18h-1v-165h-98zM379 392h51c22 3 38 15 38 32c0 23 -17 38 -46 38h-43v-70z" />
    <glyph glyph-name="trademark" unicode="&#x2122;" horiz-adv-x="711" 
d="M113 432v196h-72v69h218v-69h-71v-196h-75zM312 432v265h122l37 -157l36 157h120v-265h-75v188l-57 -188h-48l-60 188v-188h-75z" />
    <glyph glyph-name="degree" unicode="&#xb0;" horiz-adv-x="388" 
d="M193 417c-79 0 -145 65 -145 146c0 80 66 145 145 145c81 0 147 -65 147 -145c0 -81 -66 -146 -147 -146zM193 518c27 0 47 19 47 45c0 25 -20 44 -47 44c-25 0 -44 -19 -44 -44c0 -26 20 -45 44 -45z" />
    <glyph glyph-name="bar" unicode="|" horiz-adv-x="281" 
d="M85 -254v1000h111v-1000h-111z" />
    <glyph glyph-name="brokenbar" unicode="&#xa6;" horiz-adv-x="294" 
d="M85 330v416h124v-416h-124zM85 -254v409h124v-409h-124z" />
    <glyph glyph-name="dagger" unicode="&#x2020;" horiz-adv-x="366" 
d="M114 -101v478h-101v137h101v183h137v-183h103v-137h-103v-478h-137z" />
    <glyph glyph-name="daggerdbl" unicode="&#x2021;" horiz-adv-x="420" 
d="M141 -101v183h-101v137h101v158h-101v137h101v183h137v-183h101v-137h-101v-158h101v-137h-101v-183h-137z" />
    <glyph glyph-name="uni2116" unicode="&#x2116;" horiz-adv-x="1196" 
d="M501 267v430h151v-697h-155l-261 436v-436h-151v697h153zM940 169c-129 0 -210 99 -210 210s81 208 210 208c130 0 212 -97 212 -208c0 -113 -83 -210 -212 -210zM940 480c-66 0 -81 -51 -81 -101c0 -52 15 -104 81 -104c67 0 83 52 83 104c0 50 -16 101 -83 101z
M724 114h430v-114h-430v114z" />
    <glyph glyph-name="uni02F6" unicode="&#x2f6;" horiz-adv-x="533" 
d="M30 322l110 171h160l-161 -171h-109zM243 322l112 171h161l-164 -171h-109z" />
    <glyph glyph-name="uni02F5" unicode="&#x2f5;" horiz-adv-x="533" 
d="M182 322l-165 171h162l112 -171h-109zM394 322l-161 171h160l110 -171h-109z" />
    <glyph glyph-name="uni0308" unicode="&#x308;" horiz-adv-x="0" 
d="M-372 561v136h114v-136h-114zM-168 561v136h114v-136h-114z" />
    <glyph glyph-name="uni0307" unicode="&#x307;" horiz-adv-x="0" 
d="M-208 561v136h154v-136h-154z" />
    <glyph glyph-name="gravecomb" unicode="&#x300;" horiz-adv-x="0" 
d="M-115 554l-153 143h160l104 -143h-111z" />
    <glyph glyph-name="acutecomb" unicode="&#x301;" horiz-adv-x="0" 
d="M-270 554l113 143h162l-166 -143h-109z" />
    <glyph glyph-name="uni030B" unicode="&#x30b;" horiz-adv-x="0" 
d="M-467 527l113 170h135l-139 -170h-109zM-262 527l113 170h160l-164 -170h-109z" />
    <glyph glyph-name="uni030C.alt" horiz-adv-x="0" 
d="M-211 463l55 234h158l-126 -234h-87z" />
    <glyph glyph-name="uni0302" unicode="&#x302;" horiz-adv-x="0" 
d="M-309 537l160 183l160 -183h-114l-46 56l-46 -56h-114z" />
    <glyph glyph-name="uni030C" unicode="&#x30c;" horiz-adv-x="0" 
d="M-150 526l-160 171h115l45 -50l46 50h114z" />
    <glyph glyph-name="uni0306" unicode="&#x306;" horiz-adv-x="0" 
d="M-188 563c-112 0 -159 48 -159 134h106c0 -33 27 -47 53 -47c28 0 53 16 53 47h106c0 -92 -53 -134 -159 -134z" />
    <glyph glyph-name="uni030A" unicode="&#x30a;" horiz-adv-x="0" 
d="M-148 520c-70 0 -124 59 -124 124c0 68 55 124 124 124c66 0 124 -54 124 -124c0 -69 -56 -124 -124 -124zM-148 600c27 0 44 19 44 46c0 25 -15 42 -44 42c-28 0 -43 -18 -43 -42c0 -27 18 -46 43 -46z" />
    <glyph glyph-name="tildecomb" unicode="&#x303;" horiz-adv-x="0" 
d="M-144 548c-75 0 -97 59 -124 59c-13 0 -21 -20 -21 -60h-86c0 97 44 152 114 152c65 0 95 -60 119 -60c11 0 20 19 20 58h90c0 -98 -43 -149 -112 -149z" />
    <glyph glyph-name="uni0304" unicode="&#x304;" horiz-adv-x="0" 
d="M-331 546v87h278v-87h-278z" />
    <glyph glyph-name="hookabovecomb" unicode="&#x309;" horiz-adv-x="0" 
d="M-167 510l-17 61c28 4 55 5 55 29c0 26 -34 26 -71 26h-16v92h16c106 0 176 -38 176 -107c0 -79 -85 -93 -143 -101z" />
    <glyph glyph-name="uni030F" unicode="&#x30f;" horiz-adv-x="0" 
d="M-316 527l-164 170h160l113 -170h-109zM-111 527l-138 170h135l112 -170h-109z" />
    <glyph glyph-name="uni0312" unicode="&#x312;" horiz-adv-x="0" 
d="M-239 550l125 160h86l-55 -160h-156z" />
    <glyph glyph-name="uni031B" unicode="&#x31b;" horiz-adv-x="0" 
d="M-196 491v98c49 0 63 31 63 83v25h104v-34c0 -89 -46 -172 -167 -172z" />
    <glyph glyph-name="dotbelowcomb" unicode="&#x323;" horiz-adv-x="0" 
d="M-208 -173v117h154v-117h-154z" />
    <glyph glyph-name="uni0326" unicode="&#x326;" horiz-adv-x="0" 
d="M-209 -229l54 178h157l-125 -178h-86z" />
    <glyph glyph-name="uni0327" unicode="&#x327;" horiz-adv-x="0" 
d="M-150 -260c-14 0 -46 2 -79 23l46 73c13 -7 26 -11 37 -11c19 0 33 10 33 31c0 23 -15 35 -37 41c-21 6 -44 6 -71 6l63 97h88l-37 -40c19 -4 35 -12 47 -21c24 -19 34 -47 34 -77c0 -68 -50 -122 -124 -122z" />
    <glyph glyph-name="uni0328" unicode="&#x328;" horiz-adv-x="0" 
d="M-122 -227c-72 0 -125 45 -125 111c0 67 50 102 76 116h118c-19 -5 -105 -46 -105 -100c0 -28 15 -35 32 -35c21 0 34 11 43 28l78 -51c-23 -37 -57 -69 -117 -69z" />
    <glyph glyph-name="uni0335" unicode="&#x335;" horiz-adv-x="0" 
d="M-409 242v100h355v-100h-355z" />
    <glyph glyph-name="uni0336" unicode="&#x336;" horiz-adv-x="0" 
d="M-722 236v88h669v-88h-669z" />
    <glyph glyph-name="uni0337" unicode="&#x337;" horiz-adv-x="0" 
d="M-252 158v155l240 190v-153z" />
    <glyph glyph-name="uni0338" unicode="&#x338;" horiz-adv-x="0" 
d="M-423 0l341 572h113l-342 -572h-112z" />
    <glyph glyph-name="dieresis" unicode="&#xa8;" horiz-adv-x="426" 
d="M54 561v136h114v-136h-114zM258 561v136h114v-136h-114z" />
    <glyph glyph-name="dotaccent" unicode="&#x2d9;" horiz-adv-x="262" 
d="M54 561v136h154v-136h-154z" />
    <glyph glyph-name="grave" unicode="`" horiz-adv-x="261" 
d="M146 554l-153 143h160l104 -143h-111z" />
    <glyph glyph-name="acute" unicode="&#xb4;" horiz-adv-x="271" 
d="M1 554l113 143h162l-166 -143h-109z" />
    <glyph glyph-name="hungarumlaut" unicode="&#x2dd;" horiz-adv-x="468" 
d="M1 527l113 170h135l-139 -170h-109zM206 527l113 170h160l-164 -170h-109z" />
    <glyph glyph-name="circumflex" unicode="&#x2c6;" horiz-adv-x="298" 
d="M-11 537l160 183l160 -183h-114l-46 56l-46 -56h-114z" />
    <glyph glyph-name="caron" unicode="&#x2c7;" horiz-adv-x="300" 
d="M150 526l-160 171h115l45 -50l46 50h114z" />
    <glyph glyph-name="breve" unicode="&#x2d8;" horiz-adv-x="375" 
d="M187 563c-112 0 -159 48 -159 134h106c0 -33 27 -47 53 -47c28 0 53 16 53 47h106c0 -92 -53 -134 -159 -134z" />
    <glyph glyph-name="ring" unicode="&#x2da;" horiz-adv-x="296" 
d="M148 520c-70 0 -124 59 -124 124c0 68 55 124 124 124c66 0 124 -54 124 -124c0 -69 -56 -124 -124 -124zM148 600c27 0 44 19 44 46c0 25 -15 42 -44 42c-28 0 -43 -18 -43 -42c0 -27 18 -46 43 -46z" />
    <glyph glyph-name="tilde" unicode="&#x2dc;" horiz-adv-x="406" 
d="M262 548c-75 0 -97 59 -124 59c-13 0 -21 -20 -21 -60h-86c0 97 44 152 114 152c65 0 95 -60 119 -60c11 0 20 19 20 58h90c0 -98 -43 -149 -112 -149z" />
    <glyph glyph-name="macron" unicode="&#xaf;" horiz-adv-x="384" 
d="M53 546v87h278v-87h-278z" />
    <glyph glyph-name="cedilla" unicode="&#xb8;" horiz-adv-x="255" 
d="M111 -260c-41 0 -81 27 -98 64l83 35c3 -7 10 -14 19 -14c16 0 28 14 28 29c0 29 -33 52 -79 49h-29l63 96h88l-37 -39c10 -3 15 -3 27 -8c35 -16 54 -49 54 -91c0 -67 -52 -121 -119 -121z" />
    <glyph glyph-name="ogonek" unicode="&#x2db;" horiz-adv-x="258" 
d="M178 -107l75 -53c-23 -33 -57 -61 -109 -61c-65 0 -117 43 -117 105c0 75 66 111 66 115l114 1c16 4 -91 -29 -91 -95c0 -31 14 -34 24 -34c17 0 28 9 38 22zM89 -1c3 1 4 1 4 0h-4z" />
    <glyph glyph-name="uni030A.case" horiz-adv-x="0" 
d="M-148 520c-70 0 -124 59 -124 124c0 68 55 124 124 124c66 0 124 -54 124 -124c0 -69 -56 -124 -124 -124zM-148 600c27 0 44 19 44 46c0 25 -15 42 -44 42c-28 0 -43 -18 -43 -42c0 -27 18 -46 43 -46z" />
    <glyph glyph-name="uni0337.case" horiz-adv-x="0" 
d="M-300 96v155l294 232v-153z" />
    <glyph glyph-name="uni0338.case" horiz-adv-x="0" 
d="M-611 0l546 697h102l-545 -697h-103z" />
    <glyph glyph-name="uni0308.ss03" horiz-adv-x="0" 
d="M-323 537c-47 0 -85 38 -85 86s37 85 85 85s85 -37 85 -85s-37 -86 -85 -86zM-117 537c-47 0 -85 38 -85 86s37 85 85 85s85 -37 85 -85s-37 -86 -85 -86z" />
    <glyph glyph-name="uni0307.ss03" horiz-adv-x="0" 
d="M-117 537c-47 0 -85 38 -85 86s37 85 85 85s85 -37 85 -85s-37 -86 -85 -86z" />
    <glyph glyph-name="dotbelowcomb.ss03" horiz-adv-x="0" 
d="M-117 -209c-47 0 -85 38 -85 86s37 85 85 85s85 -37 85 -85s-37 -86 -85 -86z" />
    <glyph glyph-name="dieresis.ss03" horiz-adv-x="439" 
d="M116 537c-47 0 -85 38 -85 86s37 85 85 85s85 -37 85 -85s-37 -86 -85 -86zM322 537c-47 0 -85 38 -85 86s37 85 85 85s85 -37 85 -85s-37 -86 -85 -86z" />
    <glyph glyph-name="dotaccent.ss03" horiz-adv-x="233" 
d="M116 537c-47 0 -85 38 -85 86s37 85 85 85s85 -37 85 -85s-37 -86 -85 -86z" />
    <glyph glyph-name="uni03060301" horiz-adv-x="0" 
d="M-261 758l113 143h162l-166 -143h-109zM-206 563c-112 0 -159 48 -159 134h106c0 -33 27 -47 53 -47c28 0 53 16 53 47h106c0 -92 -53 -134 -159 -134z" />
    <glyph glyph-name="uni03060300" horiz-adv-x="0" 
d="M-209 758l-153 143h160l104 -143h-111zM-153 563c-112 0 -159 48 -159 134h106c0 -33 27 -47 53 -47c28 0 53 16 53 47h106c0 -92 -53 -134 -159 -134z" />
    <glyph glyph-name="uni03060309" horiz-adv-x="0" 
d="M-196 714l-17 61c28 4 55 5 55 29c0 26 -34 26 -71 26h-16v92h16c106 0 176 -38 176 -107c0 -79 -85 -93 -143 -101zM-169 563c-112 0 -159 48 -159 134h106c0 -33 27 -47 53 -47c28 0 53 16 53 47h106c0 -92 -53 -134 -159 -134z" />
    <glyph glyph-name="uni03060303" horiz-adv-x="0" 
d="M-138 752c-75 0 -97 59 -124 59c-13 0 -21 -20 -21 -60h-86c0 97 44 152 114 152c65 0 95 -60 119 -60c11 0 20 19 20 58h90c0 -98 -43 -149 -112 -149zM-197 563c-112 0 -159 48 -159 134h106c0 -33 27 -47 53 -47c28 0 53 16 53 47h106c0 -92 -53 -134 -159 -134z" />
    <glyph glyph-name="uni03020301" horiz-adv-x="0" 
d="M-266 741l113 143h162l-166 -143h-109zM-371 537l160 183l160 -183h-114l-46 56l-46 -56h-114z" />
    <glyph glyph-name="uni03020300" horiz-adv-x="0" 
d="M-202 741l-153 143h160l104 -143h-111zM-306 537l160 183l160 -183h-114l-46 56l-46 -56h-114z" />
    <glyph glyph-name="uni03020309" horiz-adv-x="0" 
d="M-136 704l146 -167h-114l-46 56l-46 -56h-114l141 161c-3 0 -5 -1 -8 -1l-17 61c28 4 55 5 55 29c0 26 -34 26 -71 26h-16v92h16c106 0 176 -38 176 -107c0 -62 -52 -84 -102 -94z" />
    <glyph glyph-name="uni03020303" horiz-adv-x="0" 
d="M-122 735c-75 0 -97 59 -124 59c-13 0 -21 -20 -21 -60h-86c0 97 44 152 114 152c65 0 95 -60 119 -60c11 0 20 19 20 58h90c0 -98 -43 -149 -112 -149zM-341 537l160 183l160 -183h-114l-46 56l-46 -56h-114z" />
    </font>
</defs>
</svg>
