<?xml version="1.0" standalone="no"?>
<!DOCTYPE svg PUBLIC "-//W3C//DTD SVG 1.1//EN" "http://www.w3.org/Graphics/SVG/1.1/DTD/svg11.dtd" >
<svg xmlns="http://www.w3.org/2000/svg" xmlns:xlink="http://www.w3.org/1999/xlink" version="1.1">
<metadata>
Created by FontForge 20190801 at Sun Apr 15 16:29:43 2018
 By Unknown
Copyright \(c\) 2018 by Alfredo Marco Pradil. All rights reserved.
</metadata>
<defs>
<font id="HKGrotesk-BoldLegacy" horiz-adv-x="1343" >
  <font-face 
    font-family="HK Grotesk Legacy"
    font-weight="700"
    font-stretch="normal"
    units-per-em="2048"
    panose-1="0 0 8 0 0 0 0 0 0 0"
    ascent="1434"
    descent="-614"
    x-height="999"
    cap-height="1413"
    bbox="-986 -522 2648 2239"
    underline-thickness="82"
    underline-position="-246"
    stemh="143"
    stemv="244"
    unicode-range="U+0020-FB02"
  />
<missing-glyph horiz-adv-x="1110" 
d="M145 0v954h820v-954h-820zM248 102h614v750h-614v-750z" />
    <glyph glyph-name="f_f" unicode="ff" horiz-adv-x="1249" 
d="M184 0v795h-164v204h164v72c0 229 197 363 422 363c90 0 187 -21 266 -70c60 45 134 70 213 70c66 0 127 -17 181 -41l-80 -201c-23 14 -51 25 -78 25c-49 0 -92 -31 -92 -109v-109h233v-204h-233v-795h-252v795h-336v-795h-244zM428 999h338v134c0 24 2 47 6 69
c-41 21 -92 35 -154 35c-131 0 -190 -70 -190 -170v-68z" />
    <glyph glyph-name="f_f_i" unicode="ffi" horiz-adv-x="1726" 
d="M1587 999v-999h-244v795h-335v-795h-244v795h-336v-795h-244v795h-164v204h164v72c0 229 197 363 422 363c100 0 209 -26 296 -87c76 57 177 87 284 87c168 0 280 -37 387 -105l-113 -172c-74 51 -157 80 -262 80c-131 0 -190 -70 -190 -170v-68h579zM764 999v72
c0 45 8 86 21 124c-42 24 -98 42 -167 42c-131 0 -190 -70 -190 -170v-68h336z" />
    <glyph glyph-name="f_f_l" unicode="ffl" horiz-adv-x="1778" 
d="M1552 -20c-114 0 -209 43 -209 219v1015c-45 15 -92 23 -145 23c-131 0 -190 -70 -190 -170v-68h190v-204h-190v-795h-244v795h-336v-795h-244v795h-164v204h164v72c0 229 197 363 422 363c101 0 209 -27 295 -86c76 55 178 86 285 86c168 0 280 -37 401 -111v-1057
c0 -47 31 -67 80 -67c14 0 41 2 68 6v-205c-52 -10 -125 -20 -183 -20zM428 999h336v72c0 45 8 86 20 123c-41 25 -98 43 -166 43c-131 0 -190 -70 -190 -170v-68z" />
    <glyph glyph-name="fi" unicode="fi" horiz-adv-x="1133" 
d="M989 999v-999h-225v795h-336v-795h-244v795h-164v204h164v72c0 229 197 363 422 363c168 0 281 -37 387 -105l-112 -172c-74 51 -158 80 -263 80c-131 0 -190 -70 -190 -170v-68h561z" />
    <glyph glyph-name="fl" unicode="fl" horiz-adv-x="1235" 
d="M1010 -20c-115 0 -209 43 -209 219v1003c-53 23 -113 35 -183 35c-131 0 -190 -70 -190 -170v-68h203l-2 -204h-201v-795h-244v795h-164v204h164v72c0 229 197 363 422 363c168 0 256 -17 438 -107v-1061c0 -47 31 -67 80 -67c15 0 41 2 68 6v-205
c-51 -10 -125 -20 -182 -20z" />
    <glyph glyph-name="h_d_c_o.liga" unicode="hdco" horiz-adv-x="1712" 
d="M856 -61c-428 0 -774 346 -774 774s346 774 774 774s774 -346 774 -774s-346 -774 -774 -774zM856 10c389 0 703 314 703 703s-314 702 -703 702s-702 -313 -702 -702s313 -703 702 -703zM453 410c-19 0 -35 14 -35 34v537c0 20 16 37 35 37c20 0 36 -17 36 -37v-537
c0 -20 -16 -34 -36 -34zM856 410c-20 0 -35 14 -35 34v537c0 20 15 37 35 37c21 0 35 -17 35 -37v-537c0 -20 -14 -34 -35 -34zM1257 410c-8 0 -16 2 -22 10l-270 268c-7 8 -9 17 -9 25c0 10 2 18 9 24l270 269c6 8 14 12 22 12c19 0 37 -19 37 -37c0 -8 -2 -16 -10 -25
l-244 -243l244 -244c8 -8 10 -16 10 -25c0 -18 -18 -34 -37 -34zM588 678c-21 0 -35 14 -35 35c0 20 14 35 35 35h133c20 0 37 -15 37 -35c0 -21 -17 -35 -37 -35h-133z" />
    <glyph glyph-name=".notdef" horiz-adv-x="1110" 
d="M145 0v954h820v-954h-820zM248 102h614v750h-614v-750z" />
    <glyph glyph-name="A" unicode="A" 
d="M12 0l566 1413h190l563 -1413h-274l-113 307h-541l-114 -307h-277zM483 524h381l-190 516z" />
    <glyph glyph-name="Aacute" unicode="&#xc1;" 
d="M553 1536l225 289h260l-307 -289h-178zM12 0l566 1413h190l563 -1413h-274l-113 307h-541l-114 -307h-277zM483 524h381l-190 516z" />
    <glyph glyph-name="Abreve" unicode="&#x102;" 
d="M672 1555c-220 0 -316 96 -316 270h172c0 -88 64 -127 144 -127c83 0 143 43 143 127h172c0 -182 -107 -270 -315 -270zM12 0l566 1413h190l563 -1413h-274l-113 307h-541l-114 -307h-277zM483 524h381l-190 516z" />
    <glyph glyph-name="uni1EAE" unicode="&#x1eae;" 
d="M553 1950l225 289h260l-307 -289h-178zM672 1555c-220 0 -316 96 -316 270h172c0 -88 64 -127 144 -127c83 0 143 43 143 127h172c0 -182 -107 -270 -315 -270zM12 0l566 1413h190l563 -1413h-274l-113 307h-541l-114 -307h-277zM483 524h381l-190 516z" />
    <glyph glyph-name="uni1EB0" unicode="&#x1eb0;" 
d="M582 1950l-308 289h260l226 -289h-178zM672 1555c-220 0 -316 96 -316 270h172c0 -88 64 -127 144 -127c83 0 143 43 143 127h172c0 -182 -107 -270 -315 -270zM12 0l566 1413h190l563 -1413h-274l-113 307h-541l-114 -307h-277zM483 524h381l-190 516z" />
    <glyph glyph-name="uni1EB4" unicode="&#x1eb4;" 
d="M799 1931c-157 0 -186 144 -260 144c-41 0 -65 -49 -65 -137h-140c0 184 82 286 213 286c142 0 185 -141 254 -141c35 0 62 47 62 135h145c0 -184 -80 -287 -209 -287zM672 1555c-220 0 -316 96 -316 270h172c0 -88 64 -127 144 -127c83 0 143 43 143 127h172
c0 -182 -107 -270 -315 -270zM12 0l566 1413h190l563 -1413h-274l-113 307h-541l-114 -307h-277zM483 524h381l-190 516z" />
    <glyph glyph-name="uni01CD" unicode="&#x1cd;" 
d="M670 1493l-316 332h189l127 -135l129 135h188zM12 0l566 1413h190l563 -1413h-274l-113 307h-541l-114 -307h-277zM483 524h381l-190 516z" />
    <glyph glyph-name="Acircumflex" unicode="&#xc2;" 
d="M354 1510l316 352l317 -352h-188l-129 145l-127 -145h-189zM12 0l566 1413h190l563 -1413h-274l-113 307h-541l-114 -307h-277zM483 524h381l-190 516z" />
    <glyph glyph-name="uni1EA4" unicode="&#x1ea4;" 
d="M553 1948l225 289h260l-307 -289h-178zM354 1510l316 352l317 -352h-188l-129 145l-127 -145h-189zM12 0l566 1413h190l563 -1413h-274l-113 307h-541l-114 -307h-277zM483 524h381l-190 516z" />
    <glyph glyph-name="uni1EA6" unicode="&#x1ea6;" 
d="M582 1948l-308 289h260l226 -289h-178zM354 1510l316 352l317 -352h-188l-129 145l-127 -145h-189zM12 0l566 1413h190l563 -1413h-274l-113 307h-541l-114 -307h-277zM483 524h381l-190 516z" />
    <glyph glyph-name="uni1EAA" unicode="&#x1eaa;" 
d="M799 1929c-157 0 -186 144 -260 144c-41 0 -65 -49 -65 -137h-140c0 184 82 286 213 286c142 0 185 -141 254 -141c35 0 62 47 62 135h145c0 -184 -80 -287 -209 -287zM354 1510l316 352l317 -352h-188l-129 145l-127 -145h-189zM12 0l566 1413h190l563 -1413h-274
l-113 307h-541l-114 -307h-277zM483 524h381l-190 516z" />
    <glyph glyph-name="Adieresis" unicode="&#xc4;" 
d="M371 1600v225h205v-225h-205zM767 1600v225h204v-225h-204zM12 0l566 1413h190l563 -1413h-274l-113 307h-541l-114 -307h-277zM483 524h381l-190 516z" />
    <glyph glyph-name="Agrave" unicode="&#xc0;" 
d="M582 1536l-308 289h260l226 -289h-178zM12 0l566 1413h190l563 -1413h-274l-113 307h-541l-114 -307h-277zM483 524h381l-190 516z" />
    <glyph glyph-name="Amacron" unicode="&#x100;" 
d="M391 1559v143h559v-143h-559zM12 0l566 1413h190l563 -1413h-274l-113 307h-541l-114 -307h-277zM483 524h381l-190 516z" />
    <glyph glyph-name="Aogonek" unicode="&#x104;" 
d="M1299 -244l122 -84c-47 -71 -116 -123 -219 -123c-129 0 -225 82 -225 205c0 162 164 246 164 246h-84l-113 307h-541l-114 -307h-277l566 1413h190l563 -1413c-20 -6 -209 -84 -209 -213c0 -72 35 -88 74 -88c43 0 76 20 103 57zM483 524h381l-190 516z" />
    <glyph glyph-name="Aring" unicode="&#xc5;" 
d="M670 1481c-129 0 -229 107 -229 231c0 127 102 230 229 230c125 0 232 -100 232 -230c0 -129 -103 -231 -232 -231zM670 1612c60 0 101 43 101 103c0 55 -37 96 -101 96c-59 0 -98 -41 -98 -96c0 -60 43 -103 98 -103zM12 0l566 1413h190l563 -1413h-274l-113 307h-541
l-114 -307h-277zM483 524h381l-190 516z" />
    <glyph glyph-name="Atilde" unicode="&#xc3;" 
d="M799 1517c-157 0 -186 144 -260 144c-41 0 -65 -49 -65 -137h-140c0 184 82 286 213 286c142 0 185 -141 254 -141c35 0 62 47 62 135h145c0 -184 -80 -287 -209 -287zM12 0l566 1413h190l563 -1413h-274l-113 307h-541l-114 -307h-277zM483 524h381l-190 516z" />
    <glyph glyph-name="AE" unicode="&#xc6;" horiz-adv-x="1982" 
d="M12 0l559 1413h1289v-223h-707v-377h619v-213h-619v-371h707v-229h-961v307h-500l-110 -307h-277zM479 504h420v696h-170z" />
    <glyph glyph-name="B" unicode="B" horiz-adv-x="1274" 
d="M182 0v1413h490c215 0 452 -98 452 -381c0 -129 -77 -233 -157 -276c129 -51 227 -205 227 -346c0 -263 -221 -410 -461 -410h-551zM436 844h260c99 0 195 35 195 174c0 110 -94 166 -215 166h-240v-340zM436 242h301c131 0 207 63 207 196c0 101 -84 187 -217 187h-291
v-383z" />
    <glyph glyph-name="C" unicode="C" horiz-adv-x="1432" 
d="M766 -20c-465 0 -684 339 -684 727c0 387 217 729 682 729c280 0 504 -142 618 -406l-237 -94c-53 186 -199 258 -383 258c-299 0 -428 -215 -428 -477c0 -281 129 -496 432 -496c182 0 307 72 383 262l235 -96c-112 -264 -337 -407 -618 -407z" />
    <glyph glyph-name="Cacute" unicode="&#x106;" horiz-adv-x="1432" 
d="M594 1536l225 289h260l-307 -289h-178zM766 -20c-465 0 -684 339 -684 727c0 387 217 729 682 729c280 0 504 -142 618 -406l-237 -94c-53 186 -199 258 -383 258c-299 0 -428 -215 -428 -477c0 -281 129 -496 432 -496c182 0 307 72 383 262l235 -96
c-112 -264 -337 -407 -618 -407z" />
    <glyph glyph-name="Ccaron" unicode="&#x10c;" horiz-adv-x="1432" 
d="M711 1493l-316 332h189l127 -135l129 135h188zM766 -20c-465 0 -684 339 -684 727c0 387 217 729 682 729c280 0 504 -142 618 -406l-237 -94c-53 186 -199 258 -383 258c-299 0 -428 -215 -428 -477c0 -281 129 -496 432 -496c182 0 307 72 383 262l235 -96
c-112 -264 -337 -407 -618 -407z" />
    <glyph glyph-name="Ccedilla" unicode="&#xc7;" horiz-adv-x="1432" 
d="M1384 387c-101 -239 -295 -379 -539 -403l-65 -84c20 -2 39 -6 55 -13c88 -28 135 -94 135 -184c0 -127 -98 -225 -229 -225c-84 0 -164 53 -197 129l136 57c10 -26 36 -47 67 -47c47 0 80 33 80 78c0 63 -68 110 -168 110h-70l113 177c-421 30 -620 355 -620 725
c0 387 217 729 682 729c280 0 504 -142 618 -406l-237 -94c-53 186 -199 258 -383 258c-299 0 -428 -215 -428 -477c0 -281 129 -496 432 -496c182 0 307 72 383 262z" />
    <glyph glyph-name="Cdotaccent" unicode="&#x10a;" horiz-adv-x="1432" 
d="M584 1600v225h256v-225h-256zM766 -20c-465 0 -684 339 -684 727c0 387 217 729 682 729c280 0 504 -142 618 -406l-237 -94c-53 186 -199 258 -383 258c-299 0 -428 -215 -428 -477c0 -281 129 -496 432 -496c182 0 307 72 383 262l235 -96
c-112 -264 -337 -407 -618 -407z" />
    <glyph glyph-name="D" unicode="D" horiz-adv-x="1409" 
d="M182 0v1413h410c481 0 735 -258 735 -717c0 -440 -262 -696 -737 -696h-408zM436 233h129c312 0 508 121 508 474c0 335 -137 473 -485 473h-152v-947z" />
    <glyph glyph-name="uni01F1" unicode="&#x1f1;" horiz-adv-x="2661" 
d="M592 1413c481 0 735 -258 735 -717c0 -440 -262 -696 -737 -696h-408v1413h410zM2587 1413v-184l-785 -1000h785v-229h-1139v176l788 1004h-743v233h1094zM565 233c312 0 508 121 508 474c0 335 -137 473 -485 473h-152v-947h129z" />
    <glyph glyph-name="uni01C4" unicode="&#x1c4;" horiz-adv-x="2661" 
d="M2333 1825l-317 -332l-316 332h189l127 -135l129 135h188zM592 1413c481 0 735 -258 735 -717c0 -440 -262 -696 -737 -696h-408v1413h410zM2587 1413v-184l-785 -1000h785v-229h-1139v176l788 1004h-743v233h1094zM565 233c312 0 508 121 508 474
c0 335 -137 473 -485 473h-152v-947h129z" />
    <glyph glyph-name="Eth" unicode="&#xd0;" horiz-adv-x="1409" 
d="M592 1413c481 0 735 -258 735 -717c0 -440 -262 -696 -737 -696h-408v625h-146v164h146v624h410zM565 233c312 0 508 121 508 474c0 335 -137 473 -485 473h-152v-391h235v-164h-235v-392h129z" />
    <glyph glyph-name="Dcaron" unicode="&#x10e;" horiz-adv-x="1409" 
d="M719 1493l-316 332h189l127 -135l129 135h188zM182 0v1413h410c481 0 735 -258 735 -717c0 -440 -262 -696 -737 -696h-408zM436 233h129c312 0 508 121 508 474c0 335 -137 473 -485 473h-152v-947z" />
    <glyph glyph-name="Dcroat" unicode="&#x110;" horiz-adv-x="1409" 
d="M592 1413c481 0 735 -258 735 -717c0 -440 -262 -696 -737 -696h-408v625h-146v164h146v624h410zM565 233c312 0 508 121 508 474c0 335 -137 473 -485 473h-152v-391h235v-164h-235v-392h129z" />
    <glyph glyph-name="uni01F2" unicode="&#x1f2;" horiz-adv-x="2419" 
d="M592 1413c481 0 735 -258 735 -717c0 -440 -262 -696 -737 -696h-408v1413h410zM565 233c312 0 508 121 508 474c0 335 -137 473 -485 473h-152v-947h129zM2349 999v-174l-542 -620h542v-205h-881v162l565 633h-536v204h852z" />
    <glyph glyph-name="uni01C5" unicode="&#x1c5;" horiz-adv-x="2419" 
d="M592 1413c481 0 735 -258 735 -717c0 -440 -262 -696 -737 -696h-408v1413h410zM2224 1413l-317 -332l-316 332h189l127 -135l129 135h188zM565 233c312 0 508 121 508 474c0 335 -137 473 -485 473h-152v-947h129zM2349 999v-174l-542 -620h542v-205h-881v162l565 633
h-536v204h852z" />
    <glyph glyph-name="E" unicode="E" horiz-adv-x="1245" 
d="M182 0v1413h940v-233h-686v-357h639v-233h-639v-350h686v-240h-940z" />
    <glyph glyph-name="Eacute" unicode="&#xc9;" horiz-adv-x="1245" 
d="M534 1536l225 289h260l-307 -289h-178zM182 0v1413h940v-233h-686v-357h639v-233h-639v-350h686v-240h-940z" />
    <glyph glyph-name="Ecaron" unicode="&#x11a;" horiz-adv-x="1245" 
d="M651 1493l-316 332h189l127 -135l129 135h188zM182 0v1413h940v-233h-686v-357h639v-233h-639v-350h686v-240h-940z" />
    <glyph glyph-name="Ecircumflex" unicode="&#xca;" horiz-adv-x="1245" 
d="M335 1510l316 352l317 -352h-188l-129 145l-127 -145h-189zM182 0v1413h940v-233h-686v-357h639v-233h-639v-350h686v-240h-940z" />
    <glyph glyph-name="uni1EBE" unicode="&#x1ebe;" horiz-adv-x="1245" 
d="M534 1948l225 289h260l-307 -289h-178zM335 1510l316 352l317 -352h-188l-129 145l-127 -145h-189zM182 0v1413h940v-233h-686v-357h639v-233h-639v-350h686v-240h-940z" />
    <glyph glyph-name="uni1EC0" unicode="&#x1ec0;" horiz-adv-x="1245" 
d="M563 1948l-308 289h260l226 -289h-178zM335 1510l316 352l317 -352h-188l-129 145l-127 -145h-189zM182 0v1413h940v-233h-686v-357h639v-233h-639v-350h686v-240h-940z" />
    <glyph glyph-name="uni1EC4" unicode="&#x1ec4;" horiz-adv-x="1245" 
d="M780 1929c-157 0 -186 144 -260 144c-41 0 -65 -49 -65 -137h-140c0 184 82 286 213 286c142 0 185 -141 254 -141c35 0 62 47 62 135h145c0 -184 -80 -287 -209 -287zM335 1510l316 352l317 -352h-188l-129 145l-127 -145h-189zM182 0v1413h940v-233h-686v-357h639v-233
h-639v-350h686v-240h-940z" />
    <glyph glyph-name="Edieresis" unicode="&#xcb;" horiz-adv-x="1245" 
d="M352 1600v225h205v-225h-205zM748 1600v225h204v-225h-204zM182 0v1413h940v-233h-686v-357h639v-233h-639v-350h686v-240h-940z" />
    <glyph glyph-name="Edotaccent" unicode="&#x116;" horiz-adv-x="1245" 
d="M524 1600v225h256v-225h-256zM182 0v1413h940v-233h-686v-357h639v-233h-639v-350h686v-240h-940z" />
    <glyph glyph-name="Egrave" unicode="&#xc8;" horiz-adv-x="1245" 
d="M563 1536l-308 289h260l226 -289h-178zM182 0v1413h940v-233h-686v-357h639v-233h-639v-350h686v-240h-940z" />
    <glyph glyph-name="Emacron" unicode="&#x112;" horiz-adv-x="1245" 
d="M372 1559v143h559v-143h-559zM182 0v1413h940v-233h-686v-357h639v-233h-639v-350h686v-240h-940z" />
    <glyph glyph-name="Eogonek" unicode="&#x118;" horiz-adv-x="1245" 
d="M1090 -244l122 -84c-47 -71 -116 -123 -219 -123c-129 0 -225 82 -225 205c0 162 164 246 164 246h-750v1413h940v-233h-686v-357h639v-233h-639v-350h686v-240c-20 -6 -209 -84 -209 -213c0 -72 35 -88 74 -88c43 0 76 20 103 57z" />
    <glyph glyph-name="uni1EBC" unicode="&#x1ebc;" horiz-adv-x="1245" 
d="M780 1517c-157 0 -186 144 -260 144c-41 0 -65 -49 -65 -137h-140c0 184 82 286 213 286c142 0 185 -141 254 -141c35 0 62 47 62 135h145c0 -184 -80 -287 -209 -287zM182 0v1413h940v-233h-686v-357h639v-233h-639v-350h686v-240h-940z" />
    <glyph glyph-name="F" unicode="F" horiz-adv-x="1235" 
d="M182 0v1413h1002v-233h-748v-357h660v-233h-660v-590h-254z" />
    <glyph glyph-name="G" unicode="G" horiz-adv-x="1534" 
d="M840 764h567v-764h-201l-22 199c-76 -133 -230 -219 -418 -219c-465 0 -684 339 -684 727c0 387 215 729 682 729c278 0 502 -142 616 -406l-225 -94c-65 192 -213 278 -393 278c-299 0 -428 -235 -428 -497c0 -281 129 -510 432 -510c221 0 377 122 385 352h-311v205z
" />
    <glyph glyph-name="Gbreve" unicode="&#x11e;" horiz-adv-x="1534" 
d="M762 1555c-220 0 -316 96 -316 270h172c0 -88 64 -127 144 -127c83 0 143 43 143 127h172c0 -182 -107 -270 -315 -270zM840 764h567v-764h-201l-22 199c-76 -133 -230 -219 -418 -219c-465 0 -684 339 -684 727c0 387 215 729 682 729c278 0 502 -142 616 -406l-225 -94
c-65 192 -213 278 -393 278c-299 0 -428 -235 -428 -497c0 -281 129 -510 432 -510c221 0 377 122 385 352h-311v205z" />
    <glyph glyph-name="uni0122" unicode="&#x122;" horiz-adv-x="1534" 
d="M840 764h567v-764h-201l-22 199c-76 -133 -230 -219 -418 -219c-465 0 -684 339 -684 727c0 387 215 729 682 729c278 0 502 -142 616 -406l-225 -94c-65 192 -213 278 -393 278c-299 0 -428 -235 -428 -497c0 -281 129 -510 432 -510c221 0 377 122 385 352h-311v205z
M521 -459l135 353h254l-248 -353h-141z" />
    <glyph glyph-name="Gdotaccent" unicode="&#x120;" horiz-adv-x="1534" 
d="M889 1825v-225h-256v225h256zM840 764h567v-764h-201l-22 199c-76 -133 -230 -219 -418 -219c-465 0 -684 339 -684 727c0 387 215 729 682 729c278 0 502 -142 616 -406l-225 -94c-65 192 -213 278 -393 278c-299 0 -428 -235 -428 -497c0 -281 129 -510 432 -510
c221 0 377 122 385 352h-311v205z" />
    <glyph glyph-name="H" unicode="H" horiz-adv-x="1491" 
d="M182 0v1413h254v-590h619v590h254v-1413h-254v590h-619v-590h-254z" />
    <glyph glyph-name="Hbar" unicode="&#x126;" horiz-adv-x="1491" 
d="M1410 1186v-143h-101v-1043h-254v590h-619v-590h-254v1043h-103v143h103v227h254v-227h619v227h254v-227h101zM1055 823v220h-619v-220h619z" />
    <glyph glyph-name="I" unicode="I" horiz-adv-x="618" 
d="M182 0v1413h254v-1413h-254z" />
    <glyph glyph-name="IJ" unicode="&#x132;" horiz-adv-x="1757" 
d="M182 0v1413h254v-1413h-254zM1126 -20c-289 0 -459 210 -477 460l250 29c10 -139 75 -254 227 -254c184 0 223 107 223 291v674h-532v233h786v-903c0 -301 -131 -530 -477 -530z" />
    <glyph glyph-name="Iacute" unicode="&#xcd;" horiz-adv-x="618" 
d="M190 1536l225 289h260l-307 -289h-178zM182 0v1413h254v-1413h-254z" />
    <glyph glyph-name="uni01CF" unicode="&#x1cf;" horiz-adv-x="618" 
d="M307 1493l-316 332h189l127 -135l129 135h188zM182 0v1413h254v-1413h-254z" />
    <glyph glyph-name="Icircumflex" unicode="&#xce;" horiz-adv-x="618" 
d="M-9 1510l316 352l317 -352h-188l-129 145l-127 -145h-189zM182 0v1413h254v-1413h-254z" />
    <glyph glyph-name="Idieresis" unicode="&#xcf;" horiz-adv-x="618" 
d="M8 1600v225h205v-225h-205zM404 1600v225h204v-225h-204zM182 0v1413h254v-1413h-254z" />
    <glyph glyph-name="Idotaccent" unicode="&#x130;" horiz-adv-x="618" 
d="M180 1600v225h256v-225h-256zM182 0v1413h254v-1413h-254z" />
    <glyph glyph-name="Igrave" unicode="&#xcc;" horiz-adv-x="618" 
d="M219 1536l-308 289h260l226 -289h-178zM182 0v1413h254v-1413h-254z" />
    <glyph glyph-name="Imacron" unicode="&#x12a;" horiz-adv-x="618" 
d="M28 1559v143h559v-143h-559zM182 0v1413h254v-1413h-254z" />
    <glyph glyph-name="Iogonek" unicode="&#x12e;" horiz-adv-x="618" 
d="M404 -244l122 -84c-47 -71 -116 -123 -219 -123c-129 0 -225 82 -225 205c0 162 164 246 164 246h-64v1413h254v-1413c-20 -6 -209 -84 -209 -213c0 -72 35 -88 74 -88c43 0 76 20 103 57z" />
    <glyph glyph-name="Itilde" unicode="&#x128;" horiz-adv-x="618" 
d="M436 1517c-157 0 -186 144 -260 144c-41 0 -65 -49 -65 -137h-140c0 184 82 286 213 286c142 0 185 -141 254 -141c35 0 62 47 62 135h145c0 -184 -80 -287 -209 -287zM182 0v1413h254v-1413h-254z" />
    <glyph glyph-name="J" unicode="J" horiz-adv-x="1139" 
d="M508 -20c-289 0 -459 210 -477 460l250 29c10 -139 75 -254 227 -254c184 0 223 107 223 291v674h-532v233h786v-903c0 -301 -131 -530 -477 -530z" />
    <glyph glyph-name="K" unicode="K" horiz-adv-x="1491" 
d="M182 0v1413h254v-737l688 737h340l-565 -579l576 -834h-316l-436 664l-287 -297v-367h-254z" />
    <glyph glyph-name="uni0136" unicode="&#x136;" horiz-adv-x="1491" 
d="M182 0v1413h254v-737l688 737h340l-565 -579l576 -834h-316l-436 664l-287 -297v-367h-254zM496 -459l135 353h254l-248 -353h-141z" />
    <glyph glyph-name="L" unicode="L" horiz-adv-x="1063" 
d="M182 0v1413h254v-1173h604v-240h-858z" />
    <glyph glyph-name="uni01C7" unicode="&#x1c7;" horiz-adv-x="2237" 
d="M182 0v1413h254v-1173h604v-240h-858zM1606 -20c-289 0 -459 210 -477 460l250 29c10 -139 75 -254 227 -254c184 0 223 107 223 291v674h-532v233h786v-903c0 -301 -131 -530 -477 -530z" />
    <glyph glyph-name="Lacute" unicode="&#x139;" horiz-adv-x="1063" 
d="M192 1536l225 289h260l-307 -289h-178zM182 0v1413h254v-1173h604v-240h-858z" />
    <glyph glyph-name="Lcaron" unicode="&#x13d;" horiz-adv-x="1063" 
d="M182 0v1413h254v-1173h604v-240h-858zM630 958l115 455h256l-228 -455h-143z" />
    <glyph glyph-name="uni013B" unicode="&#x13b;" horiz-adv-x="1063" 
d="M182 0v1413h254v-1173h604v-240h-858zM371 -459l135 353h254l-248 -353h-141z" />
    <glyph glyph-name="uni01C8" unicode="&#x1c8;" horiz-adv-x="1618" 
d="M182 0v1413h254v-1173h604v-240h-858zM1218 1188v225h258v-225h-258zM1179 -438c-61 0 -133 16 -174 32l62 211c35 -14 65 -22 88 -22c47 0 70 31 70 94v1122h245v-1103c0 -183 -90 -334 -291 -334z" />
    <glyph glyph-name="Lslash" unicode="&#x141;" horiz-adv-x="1063" 
d="M436 240h604v-240h-858v332l-145 -164v270l145 163v812h254v-525l199 224v-269l-199 -225v-378z" />
    <glyph glyph-name="M" unicode="M" horiz-adv-x="1798" 
d="M1274 1413h342v-1413h-244v1055l-350 -932h-246l-350 932v-1055h-244v1413h342l375 -1005z" />
    <glyph glyph-name="N" unicode="N" horiz-adv-x="1454" 
d="M1028 1413h244v-1413h-254l-592 993v-993h-244v1413h252l594 -988v988z" />
    <glyph glyph-name="uni01CA" unicode="&#x1ca;" horiz-adv-x="2593" 
d="M1028 425v988h244v-1413h-254l-592 993v-993h-244v1413h252zM1653 1413h786v-903c0 -301 -131 -530 -477 -530c-289 0 -459 210 -477 460l250 29c10 -139 75 -254 227 -254c184 0 223 107 223 291v674h-532v233z" />
    <glyph glyph-name="Nacute" unicode="&#x143;" horiz-adv-x="1454" 
d="M1093 1825l-307 -289h-178l225 289h260zM1028 1413h244v-1413h-254l-592 993v-993h-244v1413h252l594 -988v988z" />
    <glyph glyph-name="Ncaron" unicode="&#x147;" horiz-adv-x="1454" 
d="M1042 1825l-317 -332l-316 332h189l127 -135l129 135h188zM1028 1413h244v-1413h-254l-592 993v-993h-244v1413h252l594 -988v988z" />
    <glyph glyph-name="uni0145" unicode="&#x145;" horiz-adv-x="1454" 
d="M1028 1413h244v-1413h-254l-592 993v-993h-244v1413h252l594 -988v988zM486 -459l135 353h254l-248 -353h-141z" />
    <glyph glyph-name="Eng" unicode="&#x14a;" horiz-adv-x="1454" 
d="M1028 1413h242v-1413c0 -188 -68 -369 -326 -369c-41 0 -88 2 -141 13v159c26 -4 53 -6 76 -6c98 0 172 35 172 111c0 14 0 29 -11 45l-614 1047v-1000h-244v1413h252l594 -999v999z" />
    <glyph glyph-name="uni01CB" unicode="&#x1cb;" horiz-adv-x="1997" 
d="M1028 425v988h244v-1413h-254l-592 993v-993h-244v1413h252zM1597 1413h258v-225h-258v225zM1604 -123v1122h245v-1103c0 -183 -90 -334 -291 -334c-61 0 -133 16 -174 32l62 211c35 -14 65 -22 88 -22c47 0 70 31 70 94z" />
    <glyph glyph-name="Ntilde" unicode="&#xd1;" horiz-adv-x="1454" 
d="M594 1661c-41 0 -65 -49 -65 -137h-140c0 184 82 286 213 286c142 0 185 -141 254 -141c35 0 62 47 62 135h145c0 -184 -80 -287 -209 -287c-157 0 -186 144 -260 144zM1028 1413h244v-1413h-254l-592 993v-993h-244v1413h252l594 -988v988z" />
    <glyph glyph-name="O" unicode="O" horiz-adv-x="1528" 
d="M764 -20c-467 0 -682 342 -682 727s215 727 682 727s682 -342 682 -727s-215 -727 -682 -727zM764 205c303 0 414 235 414 502c0 266 -111 501 -414 501s-414 -235 -414 -501c0 -267 111 -502 414 -502z" />
    <glyph glyph-name="Oacute" unicode="&#xd3;" horiz-adv-x="1528" 
d="M645 1536l225 289h260l-307 -289h-178zM764 -20c-467 0 -682 342 -682 727s215 727 682 727s682 -342 682 -727s-215 -727 -682 -727zM764 205c303 0 414 235 414 502c0 266 -111 501 -414 501s-414 -235 -414 -501c0 -267 111 -502 414 -502z" />
    <glyph glyph-name="uni01D1" unicode="&#x1d1;" horiz-adv-x="1528" 
d="M762 1493l-316 332h189l127 -135l129 135h188zM764 -20c-467 0 -682 342 -682 727s215 727 682 727s682 -342 682 -727s-215 -727 -682 -727zM764 205c303 0 414 235 414 502c0 266 -111 501 -414 501s-414 -235 -414 -501c0 -267 111 -502 414 -502z" />
    <glyph glyph-name="Ocircumflex" unicode="&#xd4;" horiz-adv-x="1528" 
d="M446 1510l316 352l317 -352h-188l-129 145l-127 -145h-189zM764 -20c-467 0 -682 342 -682 727s215 727 682 727s682 -342 682 -727s-215 -727 -682 -727zM764 205c303 0 414 235 414 502c0 266 -111 501 -414 501s-414 -235 -414 -501c0 -267 111 -502 414 -502z" />
    <glyph glyph-name="uni1ED0" unicode="&#x1ed0;" horiz-adv-x="1528" 
d="M645 1948l225 289h260l-307 -289h-178zM446 1510l316 352l317 -352h-188l-129 145l-127 -145h-189zM764 -20c-467 0 -682 342 -682 727s215 727 682 727s682 -342 682 -727s-215 -727 -682 -727zM764 205c303 0 414 235 414 502c0 266 -111 501 -414 501
s-414 -235 -414 -501c0 -267 111 -502 414 -502z" />
    <glyph glyph-name="uni1ED2" unicode="&#x1ed2;" horiz-adv-x="1528" 
d="M674 1948l-308 289h260l226 -289h-178zM446 1510l316 352l317 -352h-188l-129 145l-127 -145h-189zM764 -20c-467 0 -682 342 -682 727s215 727 682 727s682 -342 682 -727s-215 -727 -682 -727zM764 205c303 0 414 235 414 502c0 266 -111 501 -414 501
s-414 -235 -414 -501c0 -267 111 -502 414 -502z" />
    <glyph glyph-name="uni1ED6" unicode="&#x1ed6;" horiz-adv-x="1528" 
d="M891 1929c-157 0 -186 144 -260 144c-41 0 -65 -49 -65 -137h-140c0 184 82 286 213 286c142 0 185 -141 254 -141c35 0 62 47 62 135h145c0 -184 -80 -287 -209 -287zM446 1510l316 352l317 -352h-188l-129 145l-127 -145h-189zM764 -20c-467 0 -682 342 -682 727
s215 727 682 727s682 -342 682 -727s-215 -727 -682 -727zM764 205c303 0 414 235 414 502c0 266 -111 501 -414 501s-414 -235 -414 -501c0 -267 111 -502 414 -502z" />
    <glyph glyph-name="Odieresis" unicode="&#xd6;" horiz-adv-x="1528" 
d="M463 1600v225h205v-225h-205zM859 1600v225h204v-225h-204zM764 -20c-467 0 -682 342 -682 727s215 727 682 727s682 -342 682 -727s-215 -727 -682 -727zM764 205c303 0 414 235 414 502c0 266 -111 501 -414 501s-414 -235 -414 -501c0 -267 111 -502 414 -502z" />
    <glyph glyph-name="Ograve" unicode="&#xd2;" horiz-adv-x="1528" 
d="M674 1536l-308 289h260l226 -289h-178zM764 -20c-467 0 -682 342 -682 727s215 727 682 727s682 -342 682 -727s-215 -727 -682 -727zM764 205c303 0 414 235 414 502c0 266 -111 501 -414 501s-414 -235 -414 -501c0 -267 111 -502 414 -502z" />
    <glyph glyph-name="Ohungarumlaut" unicode="&#x150;" horiz-adv-x="1528" 
d="M443 1495l225 330h219l-266 -330h-178zM832 1495l225 330h260l-307 -330h-178zM764 -20c-467 0 -682 342 -682 727s215 727 682 727s682 -342 682 -727s-215 -727 -682 -727zM764 205c303 0 414 235 414 502c0 266 -111 501 -414 501s-414 -235 -414 -501
c0 -267 111 -502 414 -502z" />
    <glyph glyph-name="Omacron" unicode="&#x14c;" horiz-adv-x="1528" 
d="M483 1559v143h559v-143h-559zM764 -20c-467 0 -682 342 -682 727s215 727 682 727s682 -342 682 -727s-215 -727 -682 -727zM764 205c303 0 414 235 414 502c0 266 -111 501 -414 501s-414 -235 -414 -501c0 -267 111 -502 414 -502z" />
    <glyph glyph-name="Oslash" unicode="&#xd8;" horiz-adv-x="1528" 
d="M1207 1288c162 -135 239 -350 239 -581c0 -385 -215 -727 -682 -727c-121 0 -224 23 -312 63l-26 -43h-182l77 126c-162 136 -239 351 -239 581c0 385 215 727 682 727c120 0 223 -23 311 -63l25 42h182zM350 707c0 -139 30 -270 102 -363l500 825
c-52 25 -114 39 -188 39c-303 0 -414 -235 -414 -501zM764 205c303 0 414 235 414 502c0 140 -31 271 -103 364l-501 -826c53 -26 116 -40 190 -40z" />
    <glyph glyph-name="Oslashacute" unicode="&#x1fe;" horiz-adv-x="1528" 
d="M1130 1825l-307 -289h-178l225 289h260zM1207 1288c162 -135 239 -350 239 -581c0 -385 -215 -727 -682 -727c-121 0 -224 23 -312 63l-26 -43h-182l77 126c-162 136 -239 351 -239 581c0 385 215 727 682 727c120 0 223 -23 311 -63l25 42h182zM350 707
c0 -139 30 -270 102 -363l500 825c-52 25 -114 39 -188 39c-303 0 -414 -235 -414 -501zM764 205c303 0 414 235 414 502c0 140 -31 271 -103 364l-501 -826c53 -26 116 -40 190 -40z" />
    <glyph glyph-name="Otilde" unicode="&#xd5;" horiz-adv-x="1528" 
d="M891 1517c-157 0 -186 144 -260 144c-41 0 -65 -49 -65 -137h-140c0 184 82 286 213 286c142 0 185 -141 254 -141c35 0 62 47 62 135h145c0 -184 -80 -287 -209 -287zM764 -20c-467 0 -682 342 -682 727s215 727 682 727s682 -342 682 -727s-215 -727 -682 -727z
M764 205c303 0 414 235 414 502c0 266 -111 501 -414 501s-414 -235 -414 -501c0 -267 111 -502 414 -502z" />
    <glyph glyph-name="OE" unicode="&#x152;" horiz-adv-x="2251" 
d="M2128 1180h-686v-357h639v-233h-639v-350h686v-240h-940v111c-107 -82 -247 -131 -424 -131c-467 0 -682 342 -682 727s215 727 682 727c177 0 317 -49 424 -131v110h940v-233zM764 205c303 0 414 235 414 502c0 266 -111 501 -414 501s-414 -235 -414 -501
c0 -267 111 -502 414 -502z" />
    <glyph glyph-name="P" unicode="P" horiz-adv-x="1167" 
d="M182 0v1413h443c288 0 499 -151 499 -418c0 -264 -211 -409 -499 -409h-191v-586h-252zM434 823h191c174 0 247 60 247 172c0 115 -75 181 -247 181h-191v-353z" />
    <glyph glyph-name="Thorn" unicode="&#xde;" horiz-adv-x="1151" 
d="M182 0v1413h232v-194h256c286 0 434 -158 434 -400c0 -284 -205 -422 -490 -422h-200v-397h-232zM414 608h200c177 0 258 70 258 203s-81 209 -258 209h-200v-412z" />
    <glyph glyph-name="Q" unicode="Q" horiz-adv-x="1573" 
d="M1346 -119l-203 203c-103 -68 -230 -104 -379 -104c-467 0 -682 342 -682 727s215 727 682 727s682 -344 682 -729c0 -181 -49 -353 -139 -478l202 -192zM764 219c80 0 147 17 199 41l-193 176l164 150l188 -174c49 88 70 184 70 295c0 266 -125 487 -428 487
s-428 -221 -428 -487c0 -267 125 -488 428 -488z" />
    <glyph glyph-name="R" unicode="R" horiz-adv-x="1268" 
d="M182 0v1413h457c264 0 489 -151 489 -416c0 -178 -116 -313 -276 -368l393 -629h-291l-348 604h-82h-88v-604h-254zM438 811h224c135 6 215 76 215 182c0 117 -91 193 -236 193h-203v-375z" />
    <glyph glyph-name="Racute" unicode="&#x154;" horiz-adv-x="1268" 
d="M504 1536l225 289h260l-307 -289h-178zM182 0v1413h457c264 0 489 -151 489 -416c0 -178 -116 -313 -276 -368l393 -629h-291l-348 604h-82h-88v-604h-254zM438 811h224c135 6 215 76 215 182c0 117 -91 193 -236 193h-203v-375z" />
    <glyph glyph-name="Rcaron" unicode="&#x158;" horiz-adv-x="1268" 
d="M621 1493l-316 332h189l127 -135l129 135h188zM182 0v1413h457c264 0 489 -151 489 -416c0 -178 -116 -313 -276 -368l393 -629h-291l-348 604h-82h-88v-604h-254zM438 811h224c135 6 215 76 215 182c0 117 -91 193 -236 193h-203v-375z" />
    <glyph glyph-name="uni0156" unicode="&#x156;" horiz-adv-x="1268" 
d="M182 0v1413h457c264 0 489 -151 489 -416c0 -178 -116 -313 -276 -368l393 -629h-291l-348 604h-82h-88v-604h-254zM438 811h224c135 6 215 76 215 182c0 117 -91 193 -236 193h-203v-375zM447 -459l135 353h254l-248 -353h-141z" />
    <glyph glyph-name="S" unicode="S" horiz-adv-x="1137" 
d="M586 -16c-250 0 -496 137 -541 415l252 64c18 -176 143 -254 293 -254c151 0 233 80 233 180c0 293 -684 195 -684 655c0 250 203 390 441 390c174 0 333 -76 430 -248l-211 -129c-49 96 -133 151 -228 151c-100 0 -178 -61 -178 -151c0 -266 684 -176 684 -645
c0 -267 -221 -428 -491 -428z" />
    <glyph glyph-name="Sacute" unicode="&#x15a;" horiz-adv-x="1137" 
d="M446 1536l225 289h260l-307 -289h-178zM586 -16c-250 0 -496 137 -541 415l252 64c18 -176 143 -254 293 -254c151 0 233 80 233 180c0 293 -684 195 -684 655c0 250 203 390 441 390c174 0 333 -76 430 -248l-211 -129c-49 96 -133 151 -228 151
c-100 0 -178 -61 -178 -151c0 -266 684 -176 684 -645c0 -267 -221 -428 -491 -428z" />
    <glyph glyph-name="Scaron" unicode="&#x160;" horiz-adv-x="1137" 
d="M563 1493l-316 332h189l127 -135l129 135h188zM586 -16c-250 0 -496 137 -541 415l252 64c18 -176 143 -254 293 -254c151 0 233 80 233 180c0 293 -684 195 -684 655c0 250 203 390 441 390c174 0 333 -76 430 -248l-211 -129c-49 96 -133 151 -228 151
c-100 0 -178 -61 -178 -151c0 -266 684 -176 684 -645c0 -267 -221 -428 -491 -428z" />
    <glyph glyph-name="Scedilla" unicode="&#x15e;" horiz-adv-x="1137" 
d="M1077 412c0 -253 -199 -411 -450 -427l-66 -85c20 -2 39 -6 55 -13c88 -28 135 -94 135 -184c0 -127 -98 -225 -229 -225c-84 0 -164 53 -197 129l136 57c10 -26 36 -47 67 -47c47 0 80 33 80 78c0 63 -68 110 -168 110h-70l119 186c-214 31 -405 166 -444 408l252 64
c18 -176 143 -254 293 -254c151 0 233 80 233 180c0 293 -684 195 -684 655c0 250 203 390 441 390c174 0 333 -76 430 -248l-211 -129c-49 96 -133 151 -228 151c-100 0 -178 -61 -178 -151c0 -266 684 -176 684 -645z" />
    <glyph glyph-name="uni0218" unicode="&#x218;" horiz-adv-x="1137" 
d="M586 -16c-250 0 -496 137 -541 415l252 64c18 -176 143 -254 293 -254c151 0 233 80 233 180c0 293 -684 195 -684 655c0 250 203 390 441 390c174 0 333 -76 430 -248l-211 -129c-49 96 -133 151 -228 151c-100 0 -178 -61 -178 -151c0 -266 684 -176 684 -645
c0 -267 -221 -428 -491 -428zM324 -459l135 353h254l-248 -353h-141z" />
    <glyph glyph-name="T" unicode="T" horiz-adv-x="1180" 
d="M463 0v1186h-443v227h1139v-227h-442v-1186h-254z" />
    <glyph glyph-name="Tbar" unicode="&#x166;" horiz-adv-x="1180" 
d="M1159 1186h-442v-397h190v-164h-190v-625h-254v625h-191v164h191v397h-443v227h1139v-227z" />
    <glyph glyph-name="Tcaron" unicode="&#x164;" horiz-adv-x="1180" 
d="M588 1493l-316 332h189l127 -135l129 135h188zM463 0v1186h-443v227h1139v-227h-442v-1186h-254z" />
    <glyph glyph-name="uni0162" unicode="&#x162;" horiz-adv-x="1180" 
d="M463 0v1186h-443v227h1139v-227h-442v-1186h-254zM547 -522c-84 0 -164 53 -197 129l136 57c10 -26 36 -47 67 -47c47 0 80 33 80 78c0 63 -68 110 -168 110h-70l123 193h144l-76 -98c20 -2 39 -6 55 -13c88 -28 135 -94 135 -184c0 -127 -98 -225 -229 -225z" />
    <glyph glyph-name="uni021A" unicode="&#x21a;" horiz-adv-x="1180" 
d="M463 0v1186h-443v227h1139v-227h-442v-1186h-254zM349 -459l135 353h254l-248 -353h-141z" />
    <glyph glyph-name="U" unicode="U" horiz-adv-x="1380" 
d="M690 -20c-379 0 -540 225 -540 571v862h253v-833c0 -228 60 -355 287 -355c228 0 287 127 287 355v833h254v-852c0 -356 -162 -581 -541 -581z" />
    <glyph glyph-name="Uacute" unicode="&#xda;" horiz-adv-x="1380" 
d="M567 1536l225 289h260l-307 -289h-178zM690 -20c-379 0 -540 225 -540 571v862h253v-833c0 -228 60 -355 287 -355c228 0 287 127 287 355v833h254v-852c0 -356 -162 -581 -541 -581z" />
    <glyph glyph-name="uni01D3" unicode="&#x1d3;" horiz-adv-x="1380" 
d="M684 1493l-316 332h189l127 -135l129 135h188zM690 -20c-379 0 -540 225 -540 571v862h253v-833c0 -228 60 -355 287 -355c228 0 287 127 287 355v833h254v-852c0 -356 -162 -581 -541 -581z" />
    <glyph glyph-name="Ucircumflex" unicode="&#xdb;" horiz-adv-x="1380" 
d="M368 1510l316 352l317 -352h-188l-129 145l-127 -145h-189zM690 -20c-379 0 -540 225 -540 571v862h253v-833c0 -228 60 -355 287 -355c228 0 287 127 287 355v833h254v-852c0 -356 -162 -581 -541 -581z" />
    <glyph glyph-name="Udieresis" unicode="&#xdc;" horiz-adv-x="1380" 
d="M385 1600v225h205v-225h-205zM781 1600v225h204v-225h-204zM690 -20c-379 0 -540 225 -540 571v862h253v-833c0 -228 60 -355 287 -355c228 0 287 127 287 355v833h254v-852c0 -356 -162 -581 -541 -581z" />
    <glyph glyph-name="uni01D7" unicode="&#x1d7;" horiz-adv-x="1380" 
d="M567 1950l225 289h260l-307 -289h-178zM385 1600v225h205v-225h-205zM781 1600v225h204v-225h-204zM690 -20c-379 0 -540 225 -540 571v862h253v-833c0 -228 60 -355 287 -355c228 0 287 127 287 355v833h254v-852c0 -356 -162 -581 -541 -581z" />
    <glyph glyph-name="uni01D9" unicode="&#x1d9;" horiz-adv-x="1380" 
d="M684 1907l-316 332h189l127 -135l129 135h188zM385 1600v225h205v-225h-205zM781 1600v225h204v-225h-204zM690 -20c-379 0 -540 225 -540 571v862h253v-833c0 -228 60 -355 287 -355c228 0 287 127 287 355v833h254v-852c0 -356 -162 -581 -541 -581z" />
    <glyph glyph-name="uni01DB" unicode="&#x1db;" horiz-adv-x="1380" 
d="M596 1950l-308 289h260l226 -289h-178zM385 1600v225h205v-225h-205zM781 1600v225h204v-225h-204zM690 -20c-379 0 -540 225 -540 571v862h253v-833c0 -228 60 -355 287 -355c228 0 287 127 287 355v833h254v-852c0 -356 -162 -581 -541 -581z" />
    <glyph glyph-name="uni01D5" unicode="&#x1d5;" horiz-adv-x="1380" 
d="M405 1973v143h559v-143h-559zM385 1600v225h205v-225h-205zM781 1600v225h204v-225h-204zM690 -20c-379 0 -540 225 -540 571v862h253v-833c0 -228 60 -355 287 -355c228 0 287 127 287 355v833h254v-852c0 -356 -162 -581 -541 -581z" />
    <glyph glyph-name="Ugrave" unicode="&#xd9;" horiz-adv-x="1380" 
d="M596 1536l-308 289h260l226 -289h-178zM690 -20c-379 0 -540 225 -540 571v862h253v-833c0 -228 60 -355 287 -355c228 0 287 127 287 355v833h254v-852c0 -356 -162 -581 -541 -581z" />
    <glyph glyph-name="Uhungarumlaut" unicode="&#x170;" horiz-adv-x="1380" 
d="M365 1495l225 330h219l-266 -330h-178zM754 1495l225 330h260l-307 -330h-178zM690 -20c-379 0 -540 225 -540 571v862h253v-833c0 -228 60 -355 287 -355c228 0 287 127 287 355v833h254v-852c0 -356 -162 -581 -541 -581z" />
    <glyph glyph-name="Umacron" unicode="&#x16a;" horiz-adv-x="1380" 
d="M405 1559v143h559v-143h-559zM690 -20c-379 0 -540 225 -540 571v862h253v-833c0 -228 60 -355 287 -355c228 0 287 127 287 355v833h254v-852c0 -356 -162 -581 -541 -581z" />
    <glyph glyph-name="Uogonek" unicode="&#x172;" horiz-adv-x="1380" 
d="M927 18c-61 -35 -139 -97 -139 -180c0 -72 35 -88 74 -88c43 0 76 20 103 57l122 -84c-47 -71 -116 -123 -219 -123c-129 0 -225 82 -225 205c0 76 36 134 74 175h-27c-379 0 -540 225 -540 571v862h253v-833c0 -228 60 -355 287 -355c228 0 287 127 287 355v833h254
v-852c0 -270 -93 -465 -304 -543z" />
    <glyph glyph-name="Uring" unicode="&#x16e;" horiz-adv-x="1380" 
d="M684 1481c-129 0 -229 107 -229 231c0 127 102 230 229 230c125 0 232 -100 232 -230c0 -129 -103 -231 -232 -231zM684 1612c60 0 101 43 101 103c0 55 -37 96 -101 96c-59 0 -98 -41 -98 -96c0 -60 43 -103 98 -103zM690 -20c-379 0 -540 225 -540 571v862h253v-833
c0 -228 60 -355 287 -355c228 0 287 127 287 355v833h254v-852c0 -356 -162 -581 -541 -581z" />
    <glyph glyph-name="Utilde" unicode="&#x168;" horiz-adv-x="1380" 
d="M813 1517c-157 0 -186 144 -260 144c-41 0 -65 -49 -65 -137h-140c0 184 82 286 213 286c142 0 185 -141 254 -141c35 0 62 47 62 135h145c0 -184 -80 -287 -209 -287zM690 -20c-379 0 -540 225 -540 571v862h253v-833c0 -228 60 -355 287 -355c228 0 287 127 287 355
v833h254v-852c0 -356 -162 -581 -541 -581z" />
    <glyph glyph-name="V" unicode="V" 
d="M1053 1413h278l-563 -1413h-190l-566 1413h281l381 -1001z" />
    <glyph glyph-name="W" unicode="W" horiz-adv-x="2003" 
d="M449 0l-424 1413h264l301 -1040l313 958h197l313 -958l301 1040h264l-424 -1413h-245l-308 930l-307 -930h-245z" />
    <glyph glyph-name="Wacute" unicode="&#x1e82;" horiz-adv-x="2003" 
d="M882 1536l225 289h260l-307 -289h-178zM449 0l-424 1413h264l301 -1040l313 958h197l313 -958l301 1040h264l-424 -1413h-245l-308 930l-307 -930h-245z" />
    <glyph glyph-name="Wcircumflex" unicode="&#x174;" horiz-adv-x="2003" 
d="M683 1510l316 352l317 -352h-188l-129 145l-127 -145h-189zM449 0l-424 1413h264l301 -1040l313 958h197l313 -958l301 1040h264l-424 -1413h-245l-308 930l-307 -930h-245z" />
    <glyph glyph-name="Wdieresis" unicode="&#x1e84;" horiz-adv-x="2003" 
d="M700 1600v225h205v-225h-205zM1096 1600v225h204v-225h-204zM449 0l-424 1413h264l301 -1040l313 958h197l313 -958l301 1040h264l-424 -1413h-245l-308 930l-307 -930h-245z" />
    <glyph glyph-name="Wgrave" unicode="&#x1e80;" horiz-adv-x="2003" 
d="M911 1536l-308 289h260l226 -289h-178zM449 0l-424 1413h264l301 -1040l313 958h197l313 -958l301 1040h264l-424 -1413h-245l-308 930l-307 -930h-245z" />
    <glyph glyph-name="X" unicode="X" 
d="M25 0l473 707l-471 706h303l342 -545l342 545h303l-471 -706l473 -707h-303l-346 537l-342 -537h-303z" />
    <glyph glyph-name="Y" unicode="Y" horiz-adv-x="1319" 
d="M528 0v551l-530 862h307l352 -618l355 618h309l-528 -862v-551h-265z" />
    <glyph glyph-name="Yacute" unicode="&#xdd;" horiz-adv-x="1319" 
d="M538 1538l225 289h260l-307 -289h-178zM528 0v551l-530 862h307l352 -618l355 618h309l-528 -862v-551h-265z" />
    <glyph glyph-name="Ycircumflex" unicode="&#x176;" horiz-adv-x="1319" 
d="M339 1512l316 352l317 -352h-188l-129 145l-127 -145h-189zM528 0v551l-530 862h307l352 -618l355 618h309l-528 -862v-551h-265z" />
    <glyph glyph-name="Ydieresis" unicode="&#x178;" horiz-adv-x="1319" 
d="M356 1602v225h205v-225h-205zM752 1602v225h204v-225h-204zM528 0v551l-530 862h307l352 -618l355 618h309l-528 -862v-551h-265z" />
    <glyph glyph-name="Ygrave" unicode="&#x1ef2;" horiz-adv-x="1319" 
d="M567 1538l-308 289h260l226 -289h-178zM528 0v551l-530 862h307l352 -618l355 618h309l-528 -862v-551h-265z" />
    <glyph glyph-name="uni1EF8" unicode="&#x1ef8;" horiz-adv-x="1319" 
d="M784 1519c-157 0 -186 144 -260 144c-41 0 -65 -49 -65 -137h-140c0 184 82 286 213 286c142 0 185 -141 254 -141c35 0 62 47 62 135h145c0 -184 -80 -287 -209 -287zM528 0v551l-530 862h307l352 -618l355 618h309l-528 -862v-551h-265z" />
    <glyph glyph-name="Z" unicode="Z" horiz-adv-x="1272" 
d="M1198 1413v-184l-785 -1000h785v-229h-1139v176l788 1004h-743v233h1094z" />
    <glyph glyph-name="Zacute" unicode="&#x179;" horiz-adv-x="1272" 
d="M995 1825l-307 -289h-178l225 289h260zM1198 1413v-184l-785 -1000h785v-229h-1139v176l788 1004h-743v233h1094z" />
    <glyph glyph-name="Zcaron" unicode="&#x17d;" horiz-adv-x="1272" 
d="M944 1825l-317 -332l-316 332h189l127 -135l129 135h188zM1198 1413v-184l-785 -1000h785v-229h-1139v176l788 1004h-743v233h1094z" />
    <glyph glyph-name="Zdotaccent" unicode="&#x17b;" horiz-adv-x="1272" 
d="M756 1825v-225h-256v225h256zM1198 1413v-184l-785 -1000h785v-229h-1139v176l788 1004h-743v233h1094z" />
    <glyph glyph-name="a" unicode="a" horiz-adv-x="1061" 
d="M514 1020c272 0 432 -170 432 -414v-606h-201l-15 133c-65 -103 -198 -153 -312 -153c-205 0 -363 118 -363 327c0 217 174 289 398 289h271c-5 148 -49 211 -208 211c-115 0 -192 -68 -235 -141l-187 135c96 131 223 219 420 219zM467 186c150 0 243 108 258 226v8h-258
c-111 0 -162 -58 -162 -121c0 -66 53 -113 162 -113z" />
    <glyph glyph-name="aacute" unicode="&#xe1;" horiz-adv-x="1061" 
d="M870 1413l-307 -289h-178l225 289h260zM514 1020c272 0 432 -170 432 -414v-606h-201l-15 133c-65 -103 -198 -153 -312 -153c-205 0 -363 118 -363 327c0 217 174 289 398 289h271c-5 148 -49 211 -208 211c-115 0 -192 -68 -235 -141l-187 135c96 131 223 219 420 219z
M467 186c150 0 243 108 258 226v8h-258c-111 0 -162 -58 -162 -121c0 -66 53 -113 162 -113z" />
    <glyph glyph-name="abreve" unicode="&#x103;" horiz-adv-x="1061" 
d="M504 1143c-220 0 -316 96 -316 270h172c0 -88 64 -127 144 -127c83 0 143 43 143 127h172c0 -182 -107 -270 -315 -270zM514 1020c272 0 432 -170 432 -414v-606h-201l-15 133c-65 -103 -198 -153 -312 -153c-205 0 -363 118 -363 327c0 217 174 289 398 289h271
c-5 148 -49 211 -208 211c-115 0 -192 -68 -235 -141l-187 135c96 131 223 219 420 219zM467 186c150 0 243 108 258 226v8h-258c-111 0 -162 -58 -162 -121c0 -66 53 -113 162 -113z" />
    <glyph glyph-name="uni1EAF" unicode="&#x1eaf;" horiz-adv-x="1061" 
d="M870 1827l-307 -289h-178l225 289h260zM504 1143c-220 0 -316 96 -316 270h172c0 -88 64 -127 144 -127c83 0 143 43 143 127h172c0 -182 -107 -270 -315 -270zM514 1020c272 0 432 -170 432 -414v-606h-201l-15 133c-65 -103 -198 -153 -312 -153
c-205 0 -363 118 -363 327c0 217 174 289 398 289h271c-5 148 -49 211 -208 211c-115 0 -192 -68 -235 -141l-187 135c96 131 223 219 420 219zM467 186c150 0 243 108 258 226v8h-258c-111 0 -162 -58 -162 -121c0 -66 53 -113 162 -113z" />
    <glyph glyph-name="uni1EB1" unicode="&#x1eb1;" horiz-adv-x="1061" 
d="M592 1538h-178l-308 289h260zM360 1413c0 -88 64 -127 144 -127c83 0 143 43 143 127h172c0 -182 -107 -270 -315 -270c-220 0 -316 96 -316 270h172zM514 1020c272 0 432 -170 432 -414v-606h-201l-15 133c-65 -103 -198 -153 -312 -153c-205 0 -363 118 -363 327
c0 217 174 289 398 289h271c-5 148 -49 211 -208 211c-115 0 -192 -68 -235 -141l-187 135c96 131 223 219 420 219zM467 186c150 0 243 108 258 226v8h-258c-111 0 -162 -58 -162 -121c0 -66 53 -113 162 -113z" />
    <glyph glyph-name="uni1EB5" unicode="&#x1eb5;" horiz-adv-x="1061" 
d="M371 1663c-41 0 -65 -49 -65 -137h-140c0 184 82 286 213 286c142 0 185 -141 254 -141c35 0 62 47 62 135h145c0 -184 -80 -287 -209 -287c-157 0 -186 144 -260 144zM504 1286c83 0 143 43 143 127h172c0 -182 -107 -270 -315 -270c-220 0 -316 96 -316 270h172
c0 -88 64 -127 144 -127zM514 1020c272 0 432 -170 432 -414v-606h-201l-15 133c-65 -103 -198 -153 -312 -153c-205 0 -363 118 -363 327c0 217 174 289 398 289h271c-5 148 -49 211 -208 211c-115 0 -192 -68 -235 -141l-187 135c96 131 223 219 420 219zM467 186
c150 0 243 108 258 226v8h-258c-111 0 -162 -58 -162 -121c0 -66 53 -113 162 -113z" />
    <glyph glyph-name="uni01CE" unicode="&#x1ce;" horiz-adv-x="1061" 
d="M819 1413l-317 -332l-316 332h189l127 -135l129 135h188zM514 1020c272 0 432 -170 432 -414v-606h-201l-15 133c-65 -103 -198 -153 -312 -153c-205 0 -363 118 -363 327c0 217 174 289 398 289h271c-5 148 -49 211 -208 211c-115 0 -192 -68 -235 -141l-187 135
c96 131 223 219 420 219zM467 186c150 0 243 108 258 226v8h-258c-111 0 -162 -58 -162 -121c0 -66 53 -113 162 -113z" />
    <glyph glyph-name="acircumflex" unicode="&#xe2;" horiz-adv-x="1061" 
d="M502 1243l-127 -145h-189l316 352l317 -352h-188zM514 1020c272 0 432 -170 432 -414v-606h-201l-15 133c-65 -103 -198 -153 -312 -153c-205 0 -363 118 -363 327c0 217 174 289 398 289h271c-5 148 -49 211 -208 211c-115 0 -192 -68 -235 -141l-187 135
c96 131 223 219 420 219zM467 186c150 0 243 108 258 226v8h-258c-111 0 -162 -58 -162 -121c0 -66 53 -113 162 -113z" />
    <glyph glyph-name="uni1EA5" unicode="&#x1ea5;" horiz-adv-x="1061" 
d="M870 1825l-307 -289h-178l225 289h260zM502 1243l-127 -145h-189l316 352l317 -352h-188zM514 1020c272 0 432 -170 432 -414v-606h-201l-15 133c-65 -103 -198 -153 -312 -153c-205 0 -363 118 -363 327c0 217 174 289 398 289h271c-5 148 -49 211 -208 211
c-115 0 -192 -68 -235 -141l-187 135c96 131 223 219 420 219zM467 186c150 0 243 108 258 226v8h-258c-111 0 -162 -58 -162 -121c0 -66 53 -113 162 -113z" />
    <glyph glyph-name="uni1EA7" unicode="&#x1ea7;" horiz-adv-x="1061" 
d="M592 1536h-178l-308 289h260zM186 1098l316 352l317 -352h-188l-129 145l-127 -145h-189zM514 1020c272 0 432 -170 432 -414v-606h-201l-15 133c-65 -103 -198 -153 -312 -153c-205 0 -363 118 -363 327c0 217 174 289 398 289h271c-5 148 -49 211 -208 211
c-115 0 -192 -68 -235 -141l-187 135c96 131 223 219 420 219zM467 186c150 0 243 108 258 226v8h-258c-111 0 -162 -58 -162 -121c0 -66 53 -113 162 -113z" />
    <glyph glyph-name="uni1EAB" unicode="&#x1eab;" horiz-adv-x="1061" 
d="M371 1661c-41 0 -65 -49 -65 -137h-140c0 184 82 286 213 286c142 0 185 -141 254 -141c35 0 62 47 62 135h145c0 -184 -80 -287 -209 -287c-157 0 -186 144 -260 144zM186 1098l316 352l317 -352h-188l-129 145l-127 -145h-189zM514 1020c272 0 432 -170 432 -414v-606
h-201l-15 133c-65 -103 -198 -153 -312 -153c-205 0 -363 118 -363 327c0 217 174 289 398 289h271c-5 148 -49 211 -208 211c-115 0 -192 -68 -235 -141l-187 135c96 131 223 219 420 219zM467 186c150 0 243 108 258 226v8h-258c-111 0 -162 -58 -162 -121
c0 -66 53 -113 162 -113z" />
    <glyph glyph-name="adieresis" unicode="&#xe4;" horiz-adv-x="1061" 
d="M408 1413v-225h-205v225h205zM803 1413v-225h-204v225h204zM514 1020c272 0 432 -170 432 -414v-606h-201l-15 133c-65 -103 -198 -153 -312 -153c-205 0 -363 118 -363 327c0 217 174 289 398 289h271c-5 148 -49 211 -208 211c-115 0 -192 -68 -235 -141l-187 135
c96 131 223 219 420 219zM467 186c150 0 243 108 258 226v8h-258c-111 0 -162 -58 -162 -121c0 -66 53 -113 162 -113z" />
    <glyph glyph-name="agrave" unicode="&#xe0;" horiz-adv-x="1061" 
d="M592 1124h-178l-308 289h260zM514 1020c272 0 432 -170 432 -414v-606h-201l-15 133c-65 -103 -198 -153 -312 -153c-205 0 -363 118 -363 327c0 217 174 289 398 289h271c-5 148 -49 211 -208 211c-115 0 -192 -68 -235 -141l-187 135c96 131 223 219 420 219zM467 186
c150 0 243 108 258 226v8h-258c-111 0 -162 -58 -162 -121c0 -66 53 -113 162 -113z" />
    <glyph glyph-name="amacron" unicode="&#x101;" horiz-adv-x="1061" 
d="M782 1290v-143h-559v143h559zM514 1020c272 0 432 -170 432 -414v-606h-201l-15 133c-65 -103 -198 -153 -312 -153c-205 0 -363 118 -363 327c0 217 174 289 398 289h271c-5 148 -49 211 -208 211c-115 0 -192 -68 -235 -141l-187 135c96 131 223 219 420 219zM467 186
c150 0 243 108 258 226v8h-258c-111 0 -162 -58 -162 -121c0 -66 53 -113 162 -113z" />
    <glyph glyph-name="aogonek" unicode="&#x105;" horiz-adv-x="1061" 
d="M914 -244l122 -84c-47 -71 -116 -123 -219 -123c-129 0 -225 82 -225 205c0 162 164 246 164 246h-11l-15 133c-65 -103 -198 -153 -312 -153c-205 0 -363 118 -363 327c0 217 174 289 398 289h271c-5 148 -49 211 -208 211c-115 0 -192 -68 -235 -141l-187 135
c96 131 223 219 420 219c272 0 432 -170 432 -414v-606c-20 -6 -209 -84 -209 -213c0 -72 35 -88 74 -88c43 0 76 20 103 57zM467 186c150 0 243 108 258 226v8h-258c-111 0 -162 -58 -162 -121c0 -66 53 -113 162 -113z" />
    <glyph glyph-name="aring" unicode="&#xe5;" horiz-adv-x="1061" 
d="M502 1069c-129 0 -229 107 -229 231c0 127 102 230 229 230c125 0 232 -100 232 -230c0 -129 -103 -231 -232 -231zM502 1399c-59 0 -98 -41 -98 -96c0 -60 43 -103 98 -103c60 0 101 43 101 103c0 55 -37 96 -101 96zM514 1020c272 0 432 -170 432 -414v-606h-201
l-15 133c-65 -103 -198 -153 -312 -153c-205 0 -363 118 -363 327c0 217 174 289 398 289h271c-5 148 -49 211 -208 211c-115 0 -192 -68 -235 -141l-187 135c96 131 223 219 420 219zM467 186c150 0 243 108 258 226v8h-258c-111 0 -162 -58 -162 -121
c0 -66 53 -113 162 -113z" />
    <glyph glyph-name="atilde" unicode="&#xe3;" horiz-adv-x="1061" 
d="M371 1249c-41 0 -65 -49 -65 -137h-140c0 184 82 286 213 286c142 0 185 -141 254 -141c35 0 62 47 62 135h145c0 -184 -80 -287 -209 -287c-157 0 -186 144 -260 144zM514 1020c272 0 432 -170 432 -414v-606h-201l-15 133c-65 -103 -198 -153 -312 -153
c-205 0 -363 118 -363 327c0 217 174 289 398 289h271c-5 148 -49 211 -208 211c-115 0 -192 -68 -235 -141l-187 135c96 131 223 219 420 219zM467 186c150 0 243 108 258 226v8h-258c-111 0 -162 -58 -162 -121c0 -66 53 -113 162 -113z" />
    <glyph glyph-name="uni0250" unicode="&#x250;" horiz-adv-x="1061" 
d="M545 192c115 0 192 68 235 141l187 -135c-96 -131 -223 -219 -420 -219c-272 0 -432 170 -432 414v606h201l15 -133c65 103 198 153 312 153c205 0 363 -118 363 -327c0 -217 -174 -289 -398 -289h-271c5 -148 49 -211 208 -211zM594 813c-150 0 -243 -108 -258 -226v-8
h258c111 0 162 58 162 121c0 66 -53 113 -162 113z" />
    <glyph glyph-name="ae" unicode="&#xe6;" horiz-adv-x="1677" 
d="M399 -20c-188 0 -354 120 -354 313c0 225 176 303 399 303h271c0 33 -4 61 -10 86c-23 86 -87 127 -207 127c-105 0 -191 -61 -236 -127l-172 125c100 137 229 209 416 209c149 0 274 -62 342 -164c76 96 176 160 319 160c342 0 451 -258 451 -516c0 -31 -10 -76 -10 -76
h-662c12 -123 72 -215 217 -215c107 0 178 28 248 102l170 -147c-119 -125 -250 -172 -416 -172c-172 0 -291 63 -358 164c-84 -91 -184 -172 -408 -172zM944 596h434c0 27 -4 49 -10 72c-25 90 -104 139 -221 139c-137 0 -203 -107 -203 -211zM438 160
c137 0 221 55 295 147c-10 31 -16 76 -18 113h-256c-115 0 -185 -53 -185 -125c0 -78 66 -135 164 -135z" />
    <glyph glyph-name="b" unicode="b" horiz-adv-x="1176" 
d="M684 -20c-104 0 -215 34 -285 120v-100h-252v1413h252v-514c70 86 174 121 281 121c281 0 432 -242 432 -520c0 -277 -151 -520 -428 -520zM623 205c168 0 243 129 243 295s-75 299 -243 299s-246 -131 -246 -299s78 -295 246 -295z" />
    <glyph glyph-name="c" unicode="c" horiz-adv-x="1004" 
d="M541 -20c-326 0 -484 253 -484 518c0 262 156 522 482 522c198 0 356 -96 432 -295l-232 -90c-26 96 -100 164 -200 164c-168 0 -234 -152 -234 -301c0 -152 64 -297 234 -297c98 0 174 65 200 159l222 -84c-66 -186 -222 -296 -420 -296z" />
    <glyph glyph-name="cacute" unicode="&#x107;" horiz-adv-x="1004" 
d="M420 1124l225 289h260l-307 -289h-178zM541 -20c-326 0 -484 253 -484 518c0 262 156 522 482 522c198 0 356 -96 432 -295l-232 -90c-26 96 -100 164 -200 164c-168 0 -234 -152 -234 -301c0 -152 64 -297 234 -297c98 0 174 65 200 159l222 -84
c-66 -186 -222 -296 -420 -296z" />
    <glyph glyph-name="ccaron" unicode="&#x10d;" horiz-adv-x="1004" 
d="M537 1081l-316 332h189l127 -135l129 135h188zM541 -20c-326 0 -484 253 -484 518c0 262 156 522 482 522c198 0 356 -96 432 -295l-232 -90c-26 96 -100 164 -200 164c-168 0 -234 -152 -234 -301c0 -152 64 -297 234 -297c98 0 174 65 200 159l222 -84
c-66 -186 -222 -296 -420 -296z" />
    <glyph glyph-name="ccedilla" unicode="&#xe7;" horiz-adv-x="1004" 
d="M539 201c98 0 174 65 200 159l222 -84c-59 -167 -191 -273 -361 -293l-65 -83c20 -2 39 -6 55 -13c88 -28 135 -94 135 -184c0 -127 -98 -225 -229 -225c-84 0 -164 53 -197 129l136 57c10 -26 36 -47 67 -47c47 0 80 33 80 78c0 63 -68 110 -168 110h-70l115 181
c-270 38 -402 270 -402 512c0 262 156 522 482 522c198 0 356 -96 432 -295l-232 -90c-26 96 -100 164 -200 164c-168 0 -234 -152 -234 -301c0 -152 64 -297 234 -297z" />
    <glyph glyph-name="cdotaccent" unicode="&#x10b;" horiz-adv-x="1004" 
d="M410 1188v225h256v-225h-256zM541 -20c-326 0 -484 253 -484 518c0 262 156 522 482 522c198 0 356 -96 432 -295l-232 -90c-26 96 -100 164 -200 164c-168 0 -234 -152 -234 -301c0 -152 64 -297 234 -297c98 0 174 65 200 159l222 -84c-66 -186 -222 -296 -420 -296z
" />
    <glyph glyph-name="d" unicode="d" horiz-adv-x="1171" 
d="M496 -20c-281 0 -433 241 -433 520c0 276 152 520 429 520c104 0 215 -35 284 -121v514h248v-1413h-227l-11 113c-69 -95 -180 -133 -290 -133zM555 201c168 0 242 129 242 299c0 168 -74 299 -242 299s-244 -133 -244 -299c0 -168 76 -299 244 -299z" />
    <glyph glyph-name="eth" unicode="&#xf0;" horiz-adv-x="1178" 
d="M563 -20c-299 0 -516 233 -516 495c0 275 234 473 514 473h31l-92 139l-47 -53h-131l122 140l-157 239h270l47 -65l53 65h129l-122 -139l337 -557c50 -80 76 -156 76 -250c0 -270 -229 -487 -514 -487zM561 217c148 0 268 115 268 256s-120 256 -268 256
c-145 0 -266 -115 -266 -256s121 -256 266 -256z" />
    <glyph glyph-name="dcaron" unicode="&#x10f;" horiz-adv-x="1171" 
d="M496 -20c-281 0 -433 241 -433 520c0 276 152 520 429 520c104 0 215 -35 284 -121v514h248v-1413h-227l-11 113c-69 -95 -180 -133 -290 -133zM1130 958l115 455h256l-228 -455h-143zM555 201c168 0 242 129 242 299c0 168 -74 299 -242 299s-244 -133 -244 -299
c0 -168 76 -299 244 -299z" />
    <glyph glyph-name="dcroat" unicode="&#x111;" horiz-adv-x="1171" 
d="M1155 1303v-164h-131v-1139h-227l-11 113c-69 -95 -180 -133 -290 -133c-281 0 -433 241 -433 520c0 276 152 520 429 520c104 0 215 -35 284 -121v240h-256v164h256v110h248v-110h131zM555 201c168 0 242 129 242 299c0 168 -74 299 -242 299s-244 -133 -244 -299
c0 -168 76 -299 244 -299z" />
    <glyph glyph-name="uni01F3" unicode="&#x1f3;" horiz-adv-x="2175" 
d="M776 899v514h248v-1413h-227l-11 113c-69 -95 -180 -133 -290 -133c-281 0 -433 241 -433 520c0 276 152 520 429 520c104 0 215 -35 284 -121zM2105 999v-174l-542 -620h542v-205h-881v162l565 633h-536v204h852zM555 201c168 0 242 129 242 299c0 168 -74 299 -242 299
s-244 -133 -244 -299c0 -168 76 -299 244 -299z" />
    <glyph glyph-name="uni01C6" unicode="&#x1c6;" horiz-adv-x="2175" 
d="M776 899v514h248v-1413h-227l-11 113c-69 -95 -180 -133 -290 -133c-281 0 -433 241 -433 520c0 276 152 520 429 520c104 0 215 -35 284 -121zM1980 1413l-317 -332l-316 332h189l127 -135l129 135h188zM2105 999v-174l-542 -620h542v-205h-881v162l565 633h-536v204
h852zM555 201c168 0 242 129 242 299c0 168 -74 299 -242 299s-244 -133 -244 -299c0 -168 76 -299 244 -299z" />
    <glyph glyph-name="e" unicode="e" horiz-adv-x="1069" 
d="M563 -20c-344 0 -506 247 -506 516c0 260 152 524 490 524c350 0 463 -281 463 -504c0 -41 -4 -82 -9 -96h-686c21 -131 93 -219 250 -219c90 0 170 28 240 106l168 -147c-109 -121 -242 -180 -410 -180zM315 596h455c0 22 -2 43 -8 63c-25 103 -111 156 -217 156
c-144 0 -207 -94 -230 -219z" />
    <glyph glyph-name="eacute" unicode="&#xe9;" horiz-adv-x="1069" 
d="M409 1124l225 289h260l-307 -289h-178zM563 -20c-344 0 -506 247 -506 516c0 260 152 524 490 524c350 0 463 -281 463 -504c0 -41 -4 -82 -9 -96h-686c21 -131 93 -219 250 -219c90 0 170 28 240 106l168 -147c-109 -121 -242 -180 -410 -180zM315 596h455
c0 22 -2 43 -8 63c-25 103 -111 156 -217 156c-144 0 -207 -94 -230 -219z" />
    <glyph glyph-name="ecaron" unicode="&#x11b;" horiz-adv-x="1069" 
d="M526 1081l-316 332h189l127 -135l129 135h188zM563 -20c-344 0 -506 247 -506 516c0 260 152 524 490 524c350 0 463 -281 463 -504c0 -41 -4 -82 -9 -96h-686c21 -131 93 -219 250 -219c90 0 170 28 240 106l168 -147c-109 -121 -242 -180 -410 -180zM315 596h455
c0 22 -2 43 -8 63c-25 103 -111 156 -217 156c-144 0 -207 -94 -230 -219z" />
    <glyph glyph-name="ecircumflex" unicode="&#xea;" horiz-adv-x="1069" 
d="M210 1098l316 352l317 -352h-188l-129 145l-127 -145h-189zM563 -20c-344 0 -506 247 -506 516c0 260 152 524 490 524c350 0 463 -281 463 -504c0 -41 -4 -82 -9 -96h-686c21 -131 93 -219 250 -219c90 0 170 28 240 106l168 -147c-109 -121 -242 -180 -410 -180z
M315 596h455c0 22 -2 43 -8 63c-25 103 -111 156 -217 156c-144 0 -207 -94 -230 -219z" />
    <glyph glyph-name="uni1EBF" unicode="&#x1ebf;" horiz-adv-x="1069" 
d="M409 1536l225 289h260l-307 -289h-178zM210 1098l316 352l317 -352h-188l-129 145l-127 -145h-189zM563 -20c-344 0 -506 247 -506 516c0 260 152 524 490 524c350 0 463 -281 463 -504c0 -41 -4 -82 -9 -96h-686c21 -131 93 -219 250 -219c90 0 170 28 240 106l168 -147
c-109 -121 -242 -180 -410 -180zM315 596h455c0 22 -2 43 -8 63c-25 103 -111 156 -217 156c-144 0 -207 -94 -230 -219z" />
    <glyph glyph-name="uni1EC1" unicode="&#x1ec1;" horiz-adv-x="1069" 
d="M438 1536l-308 289h260l226 -289h-178zM210 1098l316 352l317 -352h-188l-129 145l-127 -145h-189zM563 -20c-344 0 -506 247 -506 516c0 260 152 524 490 524c350 0 463 -281 463 -504c0 -41 -4 -82 -9 -96h-686c21 -131 93 -219 250 -219c90 0 170 28 240 106l168 -147
c-109 -121 -242 -180 -410 -180zM315 596h455c0 22 -2 43 -8 63c-25 103 -111 156 -217 156c-144 0 -207 -94 -230 -219z" />
    <glyph glyph-name="uni1EC5" unicode="&#x1ec5;" horiz-adv-x="1069" 
d="M655 1517c-157 0 -186 144 -260 144c-41 0 -65 -49 -65 -137h-140c0 184 82 286 213 286c142 0 185 -141 254 -141c35 0 62 47 62 135h145c0 -184 -80 -287 -209 -287zM210 1098l316 352l317 -352h-188l-129 145l-127 -145h-189zM563 -20c-344 0 -506 247 -506 516
c0 260 152 524 490 524c350 0 463 -281 463 -504c0 -41 -4 -82 -9 -96h-686c21 -131 93 -219 250 -219c90 0 170 28 240 106l168 -147c-109 -121 -242 -180 -410 -180zM315 596h455c0 22 -2 43 -8 63c-25 103 -111 156 -217 156c-144 0 -207 -94 -230 -219z" />
    <glyph glyph-name="edieresis" unicode="&#xeb;" horiz-adv-x="1069" 
d="M227 1188v225h205v-225h-205zM623 1188v225h204v-225h-204zM563 -20c-344 0 -506 247 -506 516c0 260 152 524 490 524c350 0 463 -281 463 -504c0 -41 -4 -82 -9 -96h-686c21 -131 93 -219 250 -219c90 0 170 28 240 106l168 -147c-109 -121 -242 -180 -410 -180z
M315 596h455c0 22 -2 43 -8 63c-25 103 -111 156 -217 156c-144 0 -207 -94 -230 -219z" />
    <glyph glyph-name="edotaccent" unicode="&#x117;" horiz-adv-x="1069" 
d="M399 1188v225h256v-225h-256zM563 -20c-344 0 -506 247 -506 516c0 260 152 524 490 524c350 0 463 -281 463 -504c0 -41 -4 -82 -9 -96h-686c21 -131 93 -219 250 -219c90 0 170 28 240 106l168 -147c-109 -121 -242 -180 -410 -180zM315 596h455c0 22 -2 43 -8 63
c-25 103 -111 156 -217 156c-144 0 -207 -94 -230 -219z" />
    <glyph glyph-name="egrave" unicode="&#xe8;" horiz-adv-x="1069" 
d="M438 1124l-308 289h260l226 -289h-178zM563 -20c-344 0 -506 247 -506 516c0 260 152 524 490 524c350 0 463 -281 463 -504c0 -41 -4 -82 -9 -96h-686c21 -131 93 -219 250 -219c90 0 170 28 240 106l168 -147c-109 -121 -242 -180 -410 -180zM315 596h455
c0 22 -2 43 -8 63c-25 103 -111 156 -217 156c-144 0 -207 -94 -230 -219z" />
    <glyph glyph-name="emacron" unicode="&#x113;" horiz-adv-x="1069" 
d="M247 1147v143h559v-143h-559zM563 -20c-344 0 -506 247 -506 516c0 260 152 524 490 524c350 0 463 -281 463 -504c0 -41 -4 -82 -9 -96h-686c21 -131 93 -219 250 -219c90 0 170 28 240 106l168 -147c-109 -121 -242 -180 -410 -180zM315 596h455c0 22 -2 43 -8 63
c-25 103 -111 156 -217 156c-144 0 -207 -94 -230 -219z" />
    <glyph glyph-name="eogonek" unicode="&#x119;" horiz-adv-x="1069" 
d="M1010 516c0 -41 -4 -82 -9 -96h-686c21 -131 93 -219 250 -219c90 0 170 28 240 106l168 -147c-67 -74 -143 -125 -230 -153c-59 -36 -127 -96 -127 -173c0 -72 35 -88 74 -88c43 0 76 20 103 57l122 -84c-47 -71 -116 -123 -219 -123c-129 0 -225 82 -225 205
c0 78 38 138 78 179c-335 7 -492 251 -492 516c0 260 152 524 490 524c350 0 463 -281 463 -504zM315 596h455c0 22 -2 43 -8 63c-25 103 -111 156 -217 156c-144 0 -207 -94 -230 -219z" />
    <glyph glyph-name="uni0258" unicode="&#x258;" horiz-adv-x="1069" 
d="M506 -20c-168 0 -301 59 -410 180l168 147c70 -78 150 -106 240 -106c157 0 229 88 250 219h-686c-5 14 -9 55 -9 96c0 223 113 504 463 504c338 0 490 -264 490 -524c0 -269 -162 -516 -506 -516zM754 596c-23 125 -86 219 -230 219c-106 0 -192 -53 -217 -156
c-6 -20 -8 -41 -8 -63h455z" />
    <glyph glyph-name="uni1EBD" unicode="&#x1ebd;" horiz-adv-x="1069" 
d="M655 1105c-157 0 -186 144 -260 144c-41 0 -65 -49 -65 -137h-140c0 184 82 286 213 286c142 0 185 -141 254 -141c35 0 62 47 62 135h145c0 -184 -80 -287 -209 -287zM563 -20c-344 0 -506 247 -506 516c0 260 152 524 490 524c350 0 463 -281 463 -504
c0 -41 -4 -82 -9 -96h-686c21 -131 93 -219 250 -219c90 0 170 28 240 106l168 -147c-109 -121 -242 -180 -410 -180zM315 596h455c0 22 -2 43 -8 63c-25 103 -111 156 -217 156c-144 0 -207 -94 -230 -219z" />
    <glyph glyph-name="uni01DD" unicode="&#x1dd;" horiz-adv-x="1069" 
d="M506 1019c344 0 506 -247 506 -516c0 -260 -152 -524 -490 -524c-350 0 -463 281 -463 504c0 41 4 82 9 96h686c-21 131 -93 219 -250 219c-90 0 -170 -28 -240 -106l-168 147c109 121 242 180 410 180zM754 403h-455c0 -22 2 -43 8 -63c25 -103 111 -156 217 -156
c144 0 207 94 230 219z" />
    <glyph glyph-name="uni0259" unicode="&#x259;" horiz-adv-x="1069" 
d="M506 1019c344 0 506 -247 506 -516c0 -260 -152 -524 -490 -524c-350 0 -463 281 -463 504c0 41 4 82 9 96h686c-21 131 -93 219 -250 219c-90 0 -170 -28 -240 -106l-168 147c109 121 242 180 410 180zM754 403h-455c0 -22 2 -43 8 -63c25 -103 111 -156 217 -156
c144 0 207 94 230 219z" />
    <glyph glyph-name="f" unicode="f" horiz-adv-x="688" 
d="M203 0v795h-183v204h185v134c0 194 151 301 319 301c66 0 127 -17 181 -41l-80 -201c-23 14 -52 25 -78 25c-49 0 -92 -31 -92 -109v-109h233v-204h-233v-795h-252z" />
    <glyph glyph-name="g" unicode="g" horiz-adv-x="1071" 
d="M653 172c156 0 359 -57 359 -295c0 -201 -146 -336 -457 -336c-264 0 -508 99 -508 326c0 37 6 67 16 92l137 54c-65 41 -132 112 -132 223c0 80 36 161 123 215c-38 57 -60 126 -60 202c0 217 178 367 408 367c90 0 168 -23 232 -61l153 131l125 -156l-146 -117
c27 -52 41 -110 41 -172c0 -221 -182 -362 -405 -362c-78 0 -149 17 -209 47c-27 -19 -35 -45 -35 -70c0 -88 102 -88 147 -88h211zM543 827c-109 0 -168 -79 -168 -178c0 -98 59 -172 168 -172c106 0 166 74 166 172c0 99 -60 178 -166 178zM539 -272c151 0 239 36 239 129
c0 110 -123 110 -223 110h-195l-86 -73v-23c0 -35 0 -143 265 -143z" />
    <glyph glyph-name="g.ss01" horiz-adv-x="1155" 
d="M541 -479c-222 0 -357 92 -445 215l187 135c39 -70 127 -137 262 -137c139 0 219 69 219 266v121c-70 -86 -174 -121 -281 -121c-280 0 -432 242 -432 510c0 266 152 510 428 510c105 0 215 -35 285 -121v100h246v-999c0 -313 -172 -479 -469 -479zM543 225
c168 0 241 125 241 285c0 158 -73 289 -241 289s-244 -133 -244 -289c0 -158 76 -285 244 -285z" />
    <glyph glyph-name="gbreve" unicode="&#x11f;" horiz-adv-x="1071" 
d="M537 1143c-220 0 -316 96 -316 270h172c0 -88 64 -127 144 -127c83 0 143 43 143 127h172c0 -182 -107 -270 -315 -270zM653 172c156 0 359 -57 359 -295c0 -201 -146 -336 -457 -336c-264 0 -508 99 -508 326c0 37 6 67 16 92l137 54c-65 41 -132 112 -132 223
c0 80 36 161 123 215c-38 57 -60 126 -60 202c0 217 178 367 408 367c90 0 168 -23 232 -61l153 131l125 -156l-146 -117c27 -52 41 -110 41 -172c0 -221 -182 -362 -405 -362c-78 0 -149 17 -209 47c-27 -19 -35 -45 -35 -70c0 -88 102 -88 147 -88h211zM543 827
c-109 0 -168 -79 -168 -178c0 -98 59 -172 168 -172c106 0 166 74 166 172c0 99 -60 178 -166 178zM539 -272c151 0 239 36 239 129c0 110 -123 110 -223 110h-195l-86 -73v-23c0 -35 0 -143 265 -143z" />
    <glyph glyph-name="gbreve.ss01" horiz-adv-x="1155" 
d="M578 1143c-220 0 -316 96 -316 270h172c0 -88 64 -127 144 -127c83 0 143 43 143 127h172c0 -182 -107 -270 -315 -270zM541 -479c-222 0 -357 92 -445 215l187 135c39 -70 127 -137 262 -137c139 0 219 69 219 266v121c-70 -86 -174 -121 -281 -121
c-280 0 -432 242 -432 510c0 266 152 510 428 510c105 0 215 -35 285 -121v100h246v-999c0 -313 -172 -479 -469 -479zM543 225c168 0 241 125 241 285c0 158 -73 289 -241 289s-244 -133 -244 -289c0 -158 76 -285 244 -285z" />
    <glyph glyph-name="uni0123" unicode="&#x123;" horiz-adv-x="1071" 
d="M751 1434l-135 -315h-254l248 315h141zM653 172c156 0 359 -57 359 -295c0 -201 -146 -336 -457 -336c-264 0 -508 99 -508 326c0 37 6 67 16 92l137 54c-65 41 -132 112 -132 223c0 80 36 161 123 215c-38 57 -60 126 -60 202c0 217 178 367 408 367
c90 0 168 -23 232 -61l153 131l125 -156l-146 -117c27 -52 41 -110 41 -172c0 -221 -182 -362 -405 -362c-78 0 -149 17 -209 47c-27 -19 -35 -45 -35 -70c0 -88 102 -88 147 -88h211zM543 827c-109 0 -168 -79 -168 -178c0 -98 59 -172 168 -172c106 0 166 74 166 172
c0 99 -60 178 -166 178zM539 -272c151 0 239 36 239 129c0 110 -123 110 -223 110h-195l-86 -73v-23c0 -35 0 -143 265 -143z" />
    <glyph glyph-name="uni0123.ss01" horiz-adv-x="1155" 
d="M819 1409l-135 -315h-254l248 315h141zM541 -479c-222 0 -357 92 -445 215l187 135c39 -70 127 -137 262 -137c139 0 219 69 219 266v121c-70 -86 -174 -121 -281 -121c-280 0 -432 242 -432 510c0 266 152 510 428 510c105 0 215 -35 285 -121v100h246v-999
c0 -313 -172 -479 -469 -479zM543 225c168 0 241 125 241 285c0 158 -73 289 -241 289s-244 -133 -244 -289c0 -158 76 -285 244 -285z" />
    <glyph glyph-name="gdotaccent" unicode="&#x121;" horiz-adv-x="1071" 
d="M664 1413v-225h-256v225h256zM653 172c156 0 359 -57 359 -295c0 -201 -146 -336 -457 -336c-264 0 -508 99 -508 326c0 37 6 67 16 92l137 54c-65 41 -132 112 -132 223c0 80 36 161 123 215c-38 57 -60 126 -60 202c0 217 178 367 408 367c90 0 168 -23 232 -61
l153 131l125 -156l-146 -117c27 -52 41 -110 41 -172c0 -221 -182 -362 -405 -362c-78 0 -149 17 -209 47c-27 -19 -35 -45 -35 -70c0 -88 102 -88 147 -88h211zM543 827c-109 0 -168 -79 -168 -178c0 -98 59 -172 168 -172c106 0 166 74 166 172c0 99 -60 178 -166 178z
M539 -272c151 0 239 36 239 129c0 110 -123 110 -223 110h-195l-86 -73v-23c0 -35 0 -143 265 -143z" />
    <glyph glyph-name="gdotaccent.ss01" horiz-adv-x="1155" 
d="M449 1188v225h256v-225h-256zM541 -479c-222 0 -357 92 -445 215l187 135c39 -70 127 -137 262 -137c139 0 219 69 219 266v121c-70 -86 -174 -121 -281 -121c-280 0 -432 242 -432 510c0 266 152 510 428 510c105 0 215 -35 285 -121v100h246v-999
c0 -313 -172 -479 -469 -479zM543 225c168 0 241 125 241 285c0 158 -73 289 -241 289s-244 -133 -244 -289c0 -158 76 -285 244 -285z" />
    <glyph glyph-name="uni0261" unicode="&#x261;" horiz-adv-x="1155" 
d="M541 -479c-222 0 -357 92 -445 215l187 135c39 -70 127 -137 262 -137c139 0 219 69 219 266v121c-70 -86 -174 -121 -281 -121c-280 0 -432 242 -432 510c0 266 152 510 428 510c105 0 215 -35 285 -121v100h246v-999c0 -313 -172 -479 -469 -479zM543 225
c168 0 241 125 241 285c0 158 -73 289 -241 289s-244 -133 -244 -289c0 -158 76 -285 244 -285z" />
    <glyph glyph-name="h" unicode="h" horiz-adv-x="1169" 
d="M147 0v1413h248v-530c80 98 191 137 289 137c262 0 369 -211 369 -420v-600h-248v569c0 123 -33 230 -180 230c-156 0 -230 -127 -230 -293v-506h-248z" />
    <glyph glyph-name="hbar" unicode="&#x127;" horiz-adv-x="1169" 
d="M684 1020c262 0 369 -211 369 -420v-600h-248v569c0 123 -33 230 -180 230c-156 0 -230 -127 -230 -293v-506h-248v1108h-146v164h146v141h248v-141h241v-164h-241v-225c80 98 191 137 289 137z" />
    <glyph glyph-name="i" unicode="i" horiz-adv-x="535" 
d="M139 1188v225h256v-225h-256zM145 0v999h244v-999h-244z" />
    <glyph glyph-name="dotlessi" unicode="&#x131;" horiz-adv-x="535" 
d="M145 0v999h244v-999h-244z" />
    <glyph glyph-name="iacute" unicode="&#xed;" horiz-adv-x="535" 
d="M149 1124l225 289h260l-307 -289h-178zM145 0v999h244v-999h-244z" />
    <glyph glyph-name="uni01D0" unicode="&#x1d0;" horiz-adv-x="535" 
d="M266 1081l-316 332h189l127 -135l129 135h188zM145 0v999h244v-999h-244z" />
    <glyph glyph-name="icircumflex" unicode="&#xee;" horiz-adv-x="535" 
d="M-50 1098l316 352l317 -352h-188l-129 145l-127 -145h-189zM145 0v999h244v-999h-244z" />
    <glyph glyph-name="idieresis" unicode="&#xef;" horiz-adv-x="535" 
d="M-33 1188v225h205v-225h-205zM363 1188v225h204v-225h-204zM145 0v999h244v-999h-244z" />
    <glyph glyph-name="i.loclTRK" horiz-adv-x="535" 
d="M139 1188v225h256v-225h-256zM145 0v999h244v-999h-244z" />
    <glyph glyph-name="igrave" unicode="&#xec;" horiz-adv-x="535" 
d="M178 1124l-308 289h260l226 -289h-178zM145 0v999h244v-999h-244z" />
    <glyph glyph-name="imacron" unicode="&#x12b;" horiz-adv-x="535" 
d="M-13 1147v143h559v-143h-559zM145 0v999h244v-999h-244z" />
    <glyph glyph-name="iogonek" unicode="&#x12f;" horiz-adv-x="535" 
d="M395 1413v-225h-256v225h256zM357 -244l122 -84c-47 -71 -116 -123 -219 -123c-129 0 -225 82 -225 205c0 162 164 246 164 246h-54v999h244v-999c-20 -6 -209 -84 -209 -213c0 -72 35 -88 74 -88c43 0 76 20 103 57z" />
    <glyph glyph-name="itilde" unicode="&#x129;" horiz-adv-x="535" 
d="M395 1105c-157 0 -186 144 -260 144c-41 0 -65 -49 -65 -137h-140c0 184 82 286 213 286c142 0 185 -141 254 -141c35 0 62 47 62 135h145c0 -184 -80 -287 -209 -287zM145 0v999h244v-999h-244z" />
    <glyph glyph-name="j" unicode="j" horiz-adv-x="543" 
d="M143 1188v225h258v-225h-258zM104 -438c-61 0 -133 16 -174 32l62 211c35 -14 65 -22 88 -22c47 0 70 31 70 94v1122h245v-1103c0 -183 -90 -334 -291 -334z" />
    <glyph glyph-name="uni0237" unicode="&#x237;" horiz-adv-x="543" 
d="M104 -438c-61 0 -133 16 -174 32l62 211c35 -14 65 -22 88 -22c47 0 70 31 70 94v1122h245v-1103c0 -183 -90 -334 -291 -334z" />
    <glyph glyph-name="k" unicode="k" horiz-adv-x="1118" 
d="M147 0v1413h244v-829l377 415h317l-374 -387l415 -612h-288l-293 463l-154 -170v-293h-244z" />
    <glyph glyph-name="uni0137" unicode="&#x137;" horiz-adv-x="1118" 
d="M147 0v1413h244v-829l377 415h317l-374 -387l415 -612h-288l-293 463l-154 -170v-293h-244zM373 -459l135 353h254l-248 -353h-141z" />
    <glyph glyph-name="kgreenlandic" unicode="&#x138;" horiz-adv-x="1118" 
d="M147 0v999h244v-415l377 415h317l-374 -387l415 -612h-288l-293 463l-154 -170v-293h-244z" />
    <glyph glyph-name="l" unicode="l" horiz-adv-x="573" 
d="M348 -20c-115 0 -209 43 -209 219v1214h244v-1147c0 -47 31 -67 80 -67c14 0 41 2 67 6v-205c-51 -10 -124 -20 -182 -20z" />
    <glyph glyph-name="lacute" unicode="&#x13a;" horiz-adv-x="573" 
d="M160 1536l225 289h260l-307 -289h-178zM348 -20c-115 0 -209 43 -209 219v1214h244v-1147c0 -47 31 -67 80 -67c14 0 41 2 67 6v-205c-51 -10 -124 -20 -182 -20z" />
    <glyph glyph-name="lcaron" unicode="&#x13e;" horiz-adv-x="573" 
d="M348 -20c-115 0 -209 43 -209 219v1214h244v-1147c0 -47 31 -67 80 -67c14 0 41 2 67 6v-205c-51 -10 -124 -20 -182 -20zM456 958l115 455h256l-228 -455h-143z" />
    <glyph glyph-name="uni013C" unicode="&#x13c;" horiz-adv-x="573" 
d="M348 -20c-115 0 -209 43 -209 219v1214h244v-1147c0 -47 31 -67 80 -67c14 0 41 2 67 6v-205c-51 -10 -124 -20 -182 -20zM113 -459l135 353h254l-248 -353h-141z" />
    <glyph glyph-name="uni01C9" unicode="&#x1c9;" horiz-adv-x="1116" 
d="M348 -20c-115 0 -209 43 -209 219v1214h244v-1147c0 -47 31 -67 80 -67c14 0 41 2 67 6v-205c-51 -10 -124 -20 -182 -20zM716 1188v225h258v-225h-258zM677 -438c-61 0 -133 16 -174 32l62 211c35 -14 65 -22 88 -22c47 0 70 31 70 94v1122h245v-1103
c0 -183 -90 -334 -291 -334z" />
    <glyph glyph-name="lslash" unicode="&#x142;" horiz-adv-x="573" 
d="M530 782l-147 -144v-372c0 -47 31 -67 80 -67c14 0 41 2 67 6v-205c-51 -10 -124 -20 -182 -20c-115 0 -209 43 -209 219v200l-88 -86v230l88 86v784h244v-545l147 144v-230z" />
    <glyph glyph-name="m" unicode="m" horiz-adv-x="1741" 
d="M147 0l-2 999h236v-125c65 111 168 146 270 146c113 0 236 -43 295 -176c80 129 199 176 320 176c254 0 358 -209 358 -420v-600h-244v569c0 123 -37 224 -163 224c-132 0 -209 -111 -209 -244v-549h-244v573c0 121 -37 220 -162 220c-133 0 -211 -111 -211 -244v-549
h-244z" />
    <glyph glyph-name="n" unicode="n" horiz-adv-x="1163" 
d="M145 0v999h244v-116c80 98 195 137 293 137c262 0 365 -211 365 -420v-600h-244v569c0 131 -66 226 -191 226c-137 0 -223 -74 -223 -248v-547h-244z" />
    <glyph glyph-name="nacute" unicode="&#x144;" horiz-adv-x="1163" 
d="M469 1124l225 289h260l-307 -289h-178zM145 0v999h244v-116c80 98 195 137 293 137c262 0 365 -211 365 -420v-600h-244v569c0 131 -66 226 -191 226c-137 0 -223 -74 -223 -248v-547h-244z" />
    <glyph glyph-name="ncaron" unicode="&#x148;" horiz-adv-x="1163" 
d="M586 1081l-316 332h189l127 -135l129 135h188zM145 0v999h244v-116c80 98 195 137 293 137c262 0 365 -211 365 -420v-600h-244v569c0 131 -66 226 -191 226c-137 0 -223 -74 -223 -248v-547h-244z" />
    <glyph glyph-name="uni0146" unicode="&#x146;" horiz-adv-x="1163" 
d="M145 0v999h244v-116c80 98 195 137 293 137c262 0 365 -211 365 -420v-600h-244v569c0 131 -66 226 -191 226c-137 0 -223 -74 -223 -248v-547h-244zM347 -459l135 353h254l-248 -353h-141z" />
    <glyph glyph-name="eng" unicode="&#x14b;" horiz-adv-x="1229" 
d="M750 -438c-60 0 -129 18 -166 32l55 181c33 -8 74 -15 104 -15c56 0 60 33 60 97v712c0 131 -66 226 -191 226c-137 0 -225 -74 -225 -248v-547h-242v999h242v-116c80 98 197 137 295 137c262 0 362 -211 362 -420v-715c0 -180 -92 -323 -294 -323z" />
    <glyph glyph-name="uni01CC" unicode="&#x1cc;" horiz-adv-x="1706" 
d="M1306 1188v225h258v-225h-258zM145 0v999h244v-116c80 98 195 137 293 137c262 0 365 -211 365 -420v-600h-244v569c0 131 -66 226 -191 226c-137 0 -223 -74 -223 -248v-547h-244zM1267 -438c-61 0 -133 16 -174 32l62 211c35 -14 65 -22 88 -22c47 0 70 31 70 94v1122
h245v-1103c0 -183 -90 -334 -291 -334z" />
    <glyph glyph-name="ntilde" unicode="&#xf1;" horiz-adv-x="1163" 
d="M715 1105c-157 0 -186 144 -260 144c-41 0 -65 -49 -65 -137h-140c0 184 82 286 213 286c142 0 185 -141 254 -141c35 0 62 47 62 135h145c0 -184 -80 -287 -209 -287zM145 0v999h244v-116c80 98 195 137 293 137c262 0 365 -211 365 -420v-600h-244v569
c0 131 -66 226 -191 226c-137 0 -223 -74 -223 -248v-547h-244z" />
    <glyph glyph-name="o" unicode="o" horiz-adv-x="1128" 
d="M563 -20c-309 0 -512 239 -512 522c0 282 203 518 512 518s512 -236 512 -518c0 -283 -203 -522 -512 -522zM563 190c185 0 258 148 258 312s-73 307 -258 307c-184 0 -258 -143 -258 -307s74 -312 258 -312z" />
    <glyph glyph-name="oacute" unicode="&#xf3;" horiz-adv-x="1128" 
d="M444 1124l225 289h260l-307 -289h-178zM563 -20c-309 0 -512 239 -512 522c0 282 203 518 512 518s512 -236 512 -518c0 -283 -203 -522 -512 -522zM563 190c185 0 258 148 258 312s-73 307 -258 307c-184 0 -258 -143 -258 -307s74 -312 258 -312z" />
    <glyph glyph-name="uni01D2" unicode="&#x1d2;" horiz-adv-x="1128" 
d="M561 1081l-316 332h189l127 -135l129 135h188zM563 -20c-309 0 -512 239 -512 522c0 282 203 518 512 518s512 -236 512 -518c0 -283 -203 -522 -512 -522zM563 190c185 0 258 148 258 312s-73 307 -258 307c-184 0 -258 -143 -258 -307s74 -312 258 -312z" />
    <glyph glyph-name="ocircumflex" unicode="&#xf4;" horiz-adv-x="1128" 
d="M245 1098l316 352l317 -352h-188l-129 145l-127 -145h-189zM563 -20c-309 0 -512 239 -512 522c0 282 203 518 512 518s512 -236 512 -518c0 -283 -203 -522 -512 -522zM563 190c185 0 258 148 258 312s-73 307 -258 307c-184 0 -258 -143 -258 -307s74 -312 258 -312z
" />
    <glyph glyph-name="uni1ED1" unicode="&#x1ed1;" horiz-adv-x="1128" 
d="M444 1536l225 289h260l-307 -289h-178zM245 1098l316 352l317 -352h-188l-129 145l-127 -145h-189zM563 -20c-309 0 -512 239 -512 522c0 282 203 518 512 518s512 -236 512 -518c0 -283 -203 -522 -512 -522zM563 190c185 0 258 148 258 312s-73 307 -258 307
c-184 0 -258 -143 -258 -307s74 -312 258 -312z" />
    <glyph glyph-name="uni1ED3" unicode="&#x1ed3;" horiz-adv-x="1128" 
d="M473 1536l-308 289h260l226 -289h-178zM245 1098l316 352l317 -352h-188l-129 145l-127 -145h-189zM563 -20c-309 0 -512 239 -512 522c0 282 203 518 512 518s512 -236 512 -518c0 -283 -203 -522 -512 -522zM563 190c185 0 258 148 258 312s-73 307 -258 307
c-184 0 -258 -143 -258 -307s74 -312 258 -312z" />
    <glyph glyph-name="uni1ED7" unicode="&#x1ed7;" horiz-adv-x="1128" 
d="M690 1517c-157 0 -186 144 -260 144c-41 0 -65 -49 -65 -137h-140c0 184 82 286 213 286c142 0 185 -141 254 -141c35 0 62 47 62 135h145c0 -184 -80 -287 -209 -287zM245 1098l316 352l317 -352h-188l-129 145l-127 -145h-189zM563 -20c-309 0 -512 239 -512 522
c0 282 203 518 512 518s512 -236 512 -518c0 -283 -203 -522 -512 -522zM563 190c185 0 258 148 258 312s-73 307 -258 307c-184 0 -258 -143 -258 -307s74 -312 258 -312z" />
    <glyph glyph-name="odieresis" unicode="&#xf6;" horiz-adv-x="1128" 
d="M262 1188v225h205v-225h-205zM658 1188v225h204v-225h-204zM563 -20c-309 0 -512 239 -512 522c0 282 203 518 512 518s512 -236 512 -518c0 -283 -203 -522 -512 -522zM563 190c185 0 258 148 258 312s-73 307 -258 307c-184 0 -258 -143 -258 -307s74 -312 258 -312z
" />
    <glyph glyph-name="ograve" unicode="&#xf2;" horiz-adv-x="1128" 
d="M473 1124l-308 289h260l226 -289h-178zM563 -20c-309 0 -512 239 -512 522c0 282 203 518 512 518s512 -236 512 -518c0 -283 -203 -522 -512 -522zM563 190c185 0 258 148 258 312s-73 307 -258 307c-184 0 -258 -143 -258 -307s74 -312 258 -312z" />
    <glyph glyph-name="ohungarumlaut" unicode="&#x151;" horiz-adv-x="1128" 
d="M242 1083l225 330h219l-266 -330h-178zM631 1083l225 330h260l-307 -330h-178zM563 -20c-309 0 -512 239 -512 522c0 282 203 518 512 518s512 -236 512 -518c0 -283 -203 -522 -512 -522zM563 190c185 0 258 148 258 312s-73 307 -258 307c-184 0 -258 -143 -258 -307
s74 -312 258 -312z" />
    <glyph glyph-name="omacron" unicode="&#x14d;" horiz-adv-x="1128" 
d="M282 1147v143h559v-143h-559zM563 -20c-309 0 -512 239 -512 522c0 282 203 518 512 518s512 -236 512 -518c0 -283 -203 -522 -512 -522zM563 190c185 0 258 148 258 312s-73 307 -258 307c-184 0 -258 -143 -258 -307s74 -312 258 -312z" />
    <glyph glyph-name="uni01EB" unicode="&#x1eb;" horiz-adv-x="1128" 
d="M695 -4c-46 -19 -197 -94 -197 -209c0 -72 35 -88 74 -88c43 0 76 20 103 57l122 -84c-47 -71 -116 -123 -219 -123c-129 0 -225 82 -225 205c0 122 92 199 138 230c-268 34 -440 257 -440 518c0 282 203 518 512 518s512 -236 512 -518c0 -240 -146 -449 -380 -506z
M305 502c0 -164 74 -312 258 -312c185 0 258 148 258 312s-73 307 -258 307c-184 0 -258 -143 -258 -307z" />
    <glyph glyph-name="uni0254" unicode="&#x254;" horiz-adv-x="1004" 
d="M463 -20c-198 0 -354 110 -420 296l222 84c26 -94 102 -159 200 -159c170 0 234 145 234 297c0 149 -66 301 -234 301c-100 0 -174 -68 -200 -164l-232 90c76 199 234 295 432 295c326 0 482 -260 482 -522c0 -265 -158 -518 -484 -518z" />
    <glyph glyph-name="oslash" unicode="&#xf8;" horiz-adv-x="1128" 
d="M879 917c124 -95 196 -247 196 -415c0 -283 -203 -522 -512 -522c-82 0 -157 17 -223 47l-17 -28h-129l52 86c-123 96 -195 249 -195 417c0 282 203 518 512 518c82 0 156 -17 222 -46l15 25h129zM305 502c0 -83 19 -161 61 -219l306 505c-31 14 -67 21 -109 21
c-184 0 -258 -143 -258 -307zM563 190c185 0 258 148 258 312c0 83 -19 161 -61 217l-308 -507c32 -14 68 -22 111 -22z" />
    <glyph glyph-name="oslashacute" unicode="&#x1ff;" horiz-adv-x="1128" 
d="M929 1413l-307 -289h-178l225 289h260zM879 917c124 -95 196 -247 196 -415c0 -283 -203 -522 -512 -522c-82 0 -157 17 -223 47l-17 -28h-129l52 86c-123 96 -195 249 -195 417c0 282 203 518 512 518c82 0 156 -17 222 -46l15 25h129zM305 502c0 -83 19 -161 61 -219
l306 505c-31 14 -67 21 -109 21c-184 0 -258 -143 -258 -307zM563 190c185 0 258 148 258 312c0 83 -19 161 -61 217l-308 -507c32 -14 68 -22 111 -22z" />
    <glyph glyph-name="otilde" unicode="&#xf5;" horiz-adv-x="1128" 
d="M690 1105c-157 0 -186 144 -260 144c-41 0 -65 -49 -65 -137h-140c0 184 82 286 213 286c142 0 185 -141 254 -141c35 0 62 47 62 135h145c0 -184 -80 -287 -209 -287zM563 -20c-309 0 -512 239 -512 522c0 282 203 518 512 518s512 -236 512 -518
c0 -283 -203 -522 -512 -522zM563 190c185 0 258 148 258 312s-73 307 -258 307c-184 0 -258 -143 -258 -307s74 -312 258 -312z" />
    <glyph glyph-name="oe" unicode="&#x153;" horiz-adv-x="1833" 
d="M1774 516c0 -41 -4 -82 -9 -96h-686c21 -131 93 -219 250 -219c90 0 170 28 240 106l168 -147c-109 -121 -242 -180 -410 -180c-175 0 -302 64 -386 162c-90 -99 -220 -162 -378 -162c-309 0 -512 239 -512 522c0 282 203 518 512 518c159 0 289 -62 379 -161
c80 97 202 161 369 161c350 0 463 -281 463 -504zM1079 596h455c0 22 -2 43 -8 63c-25 103 -111 156 -217 156c-144 0 -207 -94 -230 -219zM563 190c185 0 258 148 258 312s-73 307 -258 307c-184 0 -258 -143 -258 -307s74 -312 258 -312z" />
    <glyph glyph-name="p" unicode="p" horiz-adv-x="1176" 
d="M147 -414v1413h252v-100c70 86 181 121 285 121c277 0 428 -244 428 -520c0 -279 -151 -520 -432 -520c-107 0 -211 34 -281 120v-514h-252zM623 201c168 0 243 133 243 299s-75 295 -243 295s-246 -127 -246 -295s78 -299 246 -299z" />
    <glyph glyph-name="thorn" unicode="&#xfe;" horiz-adv-x="1176" 
d="M684 1020c277 0 428 -244 428 -520c0 -279 -151 -520 -432 -520c-107 0 -211 34 -281 120v-514h-252v1827h252v-514c70 86 181 121 285 121zM623 795c-168 0 -246 -127 -246 -295s78 -299 246 -299s243 133 243 299s-75 295 -243 295z" />
    <glyph glyph-name="q" unicode="q" horiz-adv-x="1176" 
d="M1029 -414h-252v514c-70 -86 -174 -120 -281 -120c-281 0 -432 241 -432 520c0 276 151 520 428 520c104 0 215 -35 285 -121v100h252v-1413zM553 201c168 0 246 131 246 299s-78 295 -246 295s-243 -129 -243 -295s75 -299 243 -299z" />
    <glyph glyph-name="r" unicode="r" horiz-adv-x="815" 
d="M145 0v999h238v-168c43 121 156 189 268 189c66 0 135 -23 183 -72l-111 -200c-33 22 -70 34 -109 34c-114 0 -233 -106 -233 -360v-422h-236z" />
    <glyph glyph-name="racute" unicode="&#x155;" horiz-adv-x="815" 
d="M336 1124l225 289h260l-307 -289h-178zM145 0v999h238v-168c43 121 156 189 268 189c66 0 135 -23 183 -72l-111 -200c-33 22 -70 34 -109 34c-114 0 -233 -106 -233 -360v-422h-236z" />
    <glyph glyph-name="rcaron" unicode="&#x159;" horiz-adv-x="815" 
d="M453 1081l-316 332h189l127 -135l129 135h188zM145 0v999h238v-168c43 121 156 189 268 189c66 0 135 -23 183 -72l-111 -200c-33 22 -70 34 -109 34c-114 0 -233 -106 -233 -360v-422h-236z" />
    <glyph glyph-name="uni0157" unicode="&#x157;" horiz-adv-x="815" 
d="M145 0v999h238v-168c43 121 156 189 268 189c66 0 135 -23 183 -72l-111 -200c-33 22 -70 34 -109 34c-114 0 -233 -106 -233 -360v-422h-236zM167 -459l135 353h254l-248 -353h-141z" />
    <glyph glyph-name="s" unicode="s" horiz-adv-x="909" 
d="M446 -20c-210 0 -370 126 -419 280l194 86c27 -72 80 -164 213 -164c113 0 162 66 162 119c0 168 -502 55 -502 408c0 211 178 311 371 311c172 0 303 -82 379 -217l-189 -103c-34 62 -90 127 -198 127c-80 0 -129 -39 -129 -86c0 -151 508 -61 508 -428
c0 -231 -201 -333 -390 -333z" />
    <glyph glyph-name="sacute" unicode="&#x15b;" horiz-adv-x="909" 
d="M311 1124l225 289h260l-307 -289h-178zM446 -20c-210 0 -370 126 -419 280l194 86c27 -72 80 -164 213 -164c113 0 162 66 162 119c0 168 -502 55 -502 408c0 211 178 311 371 311c172 0 303 -82 379 -217l-189 -103c-34 62 -90 127 -198 127c-80 0 -129 -39 -129 -86
c0 -151 508 -61 508 -428c0 -231 -201 -333 -390 -333z" />
    <glyph glyph-name="scaron" unicode="&#x161;" horiz-adv-x="909" 
d="M428 1081l-316 332h189l127 -135l129 135h188zM446 -20c-210 0 -370 126 -419 280l194 86c27 -72 80 -164 213 -164c113 0 162 66 162 119c0 168 -502 55 -502 408c0 211 178 311 371 311c172 0 303 -82 379 -217l-189 -103c-34 62 -90 127 -198 127
c-80 0 -129 -39 -129 -86c0 -151 508 -61 508 -428c0 -231 -201 -333 -390 -333z" />
    <glyph glyph-name="scedilla" unicode="&#x15f;" horiz-adv-x="909" 
d="M328 741c0 -151 508 -61 508 -428c0 -185 -128 -287 -276 -320l-72 -93c20 -2 39 -6 55 -13c88 -28 135 -94 135 -184c0 -127 -98 -225 -229 -225c-84 0 -164 53 -197 129l136 57c10 -26 36 -47 67 -47c47 0 80 33 80 78c0 63 -68 110 -168 110h-70l112 176
c-191 14 -336 134 -382 279l194 86c27 -72 80 -164 213 -164c113 0 162 66 162 119c0 168 -502 55 -502 408c0 211 178 311 371 311c172 0 303 -82 379 -217l-189 -103c-34 62 -90 127 -198 127c-80 0 -129 -39 -129 -86z" />
    <glyph glyph-name="uni0219" unicode="&#x219;" horiz-adv-x="909" 
d="M446 -20c-210 0 -370 126 -419 280l194 86c27 -72 80 -164 213 -164c113 0 162 66 162 119c0 168 -502 55 -502 408c0 211 178 311 371 311c172 0 303 -82 379 -217l-189 -103c-34 62 -90 127 -198 127c-80 0 -129 -39 -129 -86c0 -151 508 -61 508 -428
c0 -231 -201 -333 -390 -333zM251 -459l135 353h254l-248 -353h-141z" />
    <glyph glyph-name="germandbls" unicode="&#xdf;" horiz-adv-x="1186" 
d="M729 -18c-70 0 -139 14 -203 36l84 207c41 -16 84 -22 113 -22c86 0 137 51 137 116c0 160 -295 216 -295 443c0 196 217 180 217 319c0 68 -53 144 -186 144c-139 0 -207 -82 -207 -205v-1020h-242v1020c0 264 207 414 435 414c219 0 442 -142 442 -369
c0 -234 -233 -231 -233 -313c0 -95 315 -152 315 -430c0 -201 -164 -340 -377 -340z" />
    <glyph glyph-name="t" unicode="t" horiz-adv-x="754" 
d="M498 -20c-195 0 -312 114 -312 296v519h-161v204h165v248l240 174v-422h250v-204h-250v-476c0 -96 47 -124 111 -124c51 0 106 20 139 36v-221c-37 -14 -109 -30 -182 -30z" />
    <glyph glyph-name="tbar" unicode="&#x167;" horiz-adv-x="754" 
d="M680 795h-250v-213h245v-164h-245v-99c0 -96 47 -124 111 -124c51 0 106 20 139 36v-221c-37 -14 -109 -30 -182 -30c-195 0 -312 114 -312 296v142h-146v164h146v213h-161v204h165v248l240 174v-422h250v-204z" />
    <glyph glyph-name="tcaron" unicode="&#x165;" horiz-adv-x="754" 
d="M540 1135l115 455h256l-228 -455h-143zM498 -20c-195 0 -312 114 -312 296v519h-161v204h165v248l240 174v-422h250v-204h-250v-476c0 -96 47 -124 111 -124c51 0 106 20 139 36v-221c-37 -14 -109 -30 -182 -30z" />
    <glyph glyph-name="uni0163" unicode="&#x163;" horiz-adv-x="754" 
d="M680 795h-250v-476c0 -96 47 -124 111 -124c51 0 106 20 139 36v-221c-27 -10 -74 -22 -126 -27l-64 -83c20 -2 39 -6 55 -13c88 -28 135 -94 135 -184c0 -127 -98 -225 -229 -225c-84 0 -164 53 -197 129l136 57c10 -26 36 -47 67 -47c47 0 80 33 80 78
c0 63 -68 110 -168 110h-70l116 183c-145 28 -229 133 -229 288v519h-161v204h165v248l240 174v-422h250v-204z" />
    <glyph glyph-name="uni021B" unicode="&#x21b;" horiz-adv-x="754" 
d="M498 -20c-195 0 -312 114 -312 296v519h-161v204h165v248l240 174v-422h250v-204h-250v-476c0 -96 47 -124 111 -124c51 0 106 20 139 36v-221c-37 -14 -109 -30 -182 -30zM253 -459l135 353h254l-248 -353h-141z" />
    <glyph glyph-name="u" unicode="u" horiz-adv-x="1161" 
d="M479 -20c-262 0 -362 210 -362 419v600h241v-569c0 -131 66 -225 191 -225c137 0 225 74 225 248v546h242v-999h-242v117c-80 -99 -196 -137 -295 -137z" />
    <glyph glyph-name="uacute" unicode="&#xfa;" horiz-adv-x="1161" 
d="M463 1124l225 289h260l-307 -289h-178zM479 -20c-262 0 -362 210 -362 419v600h241v-569c0 -131 66 -225 191 -225c137 0 225 74 225 248v546h242v-999h-242v117c-80 -99 -196 -137 -295 -137z" />
    <glyph glyph-name="uni01D4" unicode="&#x1d4;" horiz-adv-x="1161" 
d="M580 1081l-316 332h189l127 -135l129 135h188zM479 -20c-262 0 -362 210 -362 419v600h241v-569c0 -131 66 -225 191 -225c137 0 225 74 225 248v546h242v-999h-242v117c-80 -99 -196 -137 -295 -137z" />
    <glyph glyph-name="ucircumflex" unicode="&#xfb;" horiz-adv-x="1161" 
d="M264 1098l316 352l317 -352h-188l-129 145l-127 -145h-189zM479 -20c-262 0 -362 210 -362 419v600h241v-569c0 -131 66 -225 191 -225c137 0 225 74 225 248v546h242v-999h-242v117c-80 -99 -196 -137 -295 -137z" />
    <glyph glyph-name="udieresis" unicode="&#xfc;" horiz-adv-x="1161" 
d="M281 1188v225h205v-225h-205zM677 1188v225h204v-225h-204zM479 -20c-262 0 -362 210 -362 419v600h241v-569c0 -131 66 -225 191 -225c137 0 225 74 225 248v546h242v-999h-242v117c-80 -99 -196 -137 -295 -137z" />
    <glyph glyph-name="uni01D8" unicode="&#x1d8;" horiz-adv-x="1161" 
d="M463 1538l225 289h260l-307 -289h-178zM281 1188v225h205v-225h-205zM677 1188v225h204v-225h-204zM479 -20c-262 0 -362 210 -362 419v600h241v-569c0 -131 66 -225 191 -225c137 0 225 74 225 248v546h242v-999h-242v117c-80 -99 -196 -137 -295 -137z" />
    <glyph glyph-name="uni01DA" unicode="&#x1da;" horiz-adv-x="1161" 
d="M580 1495l-316 332h189l127 -135l129 135h188zM281 1188v225h205v-225h-205zM677 1188v225h204v-225h-204zM479 -20c-262 0 -362 210 -362 419v600h241v-569c0 -131 66 -225 191 -225c137 0 225 74 225 248v546h242v-999h-242v117c-80 -99 -196 -137 -295 -137z" />
    <glyph glyph-name="uni01DC" unicode="&#x1dc;" horiz-adv-x="1161" 
d="M492 1538l-308 289h260l226 -289h-178zM281 1188v225h205v-225h-205zM677 1188v225h204v-225h-204zM479 -20c-262 0 -362 210 -362 419v600h241v-569c0 -131 66 -225 191 -225c137 0 225 74 225 248v546h242v-999h-242v117c-80 -99 -196 -137 -295 -137z" />
    <glyph glyph-name="uni01D6" unicode="&#x1d6;" horiz-adv-x="1161" 
d="M301 1561v143h559v-143h-559zM281 1188v225h205v-225h-205zM677 1188v225h204v-225h-204zM479 -20c-262 0 -362 210 -362 419v600h241v-569c0 -131 66 -225 191 -225c137 0 225 74 225 248v546h242v-999h-242v117c-80 -99 -196 -137 -295 -137z" />
    <glyph glyph-name="ugrave" unicode="&#xf9;" horiz-adv-x="1161" 
d="M492 1124l-308 289h260l226 -289h-178zM479 -20c-262 0 -362 210 -362 419v600h241v-569c0 -131 66 -225 191 -225c137 0 225 74 225 248v546h242v-999h-242v117c-80 -99 -196 -137 -295 -137z" />
    <glyph glyph-name="uhungarumlaut" unicode="&#x171;" horiz-adv-x="1161" 
d="M261 1083l225 330h219l-266 -330h-178zM650 1083l225 330h260l-307 -330h-178zM479 -20c-262 0 -362 210 -362 419v600h241v-569c0 -131 66 -225 191 -225c137 0 225 74 225 248v546h242v-999h-242v117c-80 -99 -196 -137 -295 -137z" />
    <glyph glyph-name="umacron" unicode="&#x16b;" horiz-adv-x="1161" 
d="M301 1147v143h559v-143h-559zM479 -20c-262 0 -362 210 -362 419v600h241v-569c0 -131 66 -225 191 -225c137 0 225 74 225 248v546h242v-999h-242v117c-80 -99 -196 -137 -295 -137z" />
    <glyph glyph-name="uogonek" unicode="&#x173;" horiz-adv-x="1161" 
d="M984 -244l122 -84c-47 -71 -116 -123 -219 -123c-129 0 -225 82 -225 205c0 162 164 246 164 246h-52v117c-80 -99 -196 -137 -295 -137c-262 0 -362 210 -362 419v600h241v-569c0 -131 66 -225 191 -225c137 0 225 74 225 248v546h242v-999c-20 -6 -209 -84 -209 -213
c0 -72 35 -88 74 -88c43 0 76 20 103 57z" />
    <glyph glyph-name="uring" unicode="&#x16f;" horiz-adv-x="1161" 
d="M580 1069c-129 0 -229 107 -229 231c0 127 102 230 229 230c125 0 232 -100 232 -230c0 -129 -103 -231 -232 -231zM580 1200c60 0 101 43 101 103c0 55 -37 96 -101 96c-59 0 -98 -41 -98 -96c0 -60 43 -103 98 -103zM479 -20c-262 0 -362 210 -362 419v600h241v-569
c0 -131 66 -225 191 -225c137 0 225 74 225 248v546h242v-999h-242v117c-80 -99 -196 -137 -295 -137z" />
    <glyph glyph-name="utilde" unicode="&#x169;" horiz-adv-x="1161" 
d="M709 1105c-157 0 -186 144 -260 144c-41 0 -65 -49 -65 -137h-140c0 184 82 286 213 286c142 0 185 -141 254 -141c35 0 62 47 62 135h145c0 -184 -80 -287 -209 -287zM479 -20c-262 0 -362 210 -362 419v600h241v-569c0 -131 66 -225 191 -225c137 0 225 74 225 248v546
h242v-999h-242v117c-80 -99 -196 -137 -295 -137z" />
    <glyph glyph-name="v" unicode="v" horiz-adv-x="999" 
d="M399 0l-407 999h266l242 -684l243 684h265l-408 -999h-201z" />
    <glyph glyph-name="w" unicode="w" horiz-adv-x="1466" 
d="M317 0l-307 999h260l170 -626l189 626h209l188 -624l172 624h260l-309 -999h-219l-197 655l-196 -655h-220z" />
    <glyph glyph-name="wacute" unicode="&#x1e83;" horiz-adv-x="1466" 
d="M616 1124l225 289h260l-307 -289h-178zM317 0l-307 999h260l170 -626l189 626h209l188 -624l172 624h260l-309 -999h-219l-197 655l-196 -655h-220z" />
    <glyph glyph-name="wcircumflex" unicode="&#x175;" horiz-adv-x="1466" 
d="M417 1098l316 352l317 -352h-188l-129 145l-127 -145h-189zM317 0l-307 999h260l170 -626l189 626h209l188 -624l172 624h260l-309 -999h-219l-197 655l-196 -655h-220z" />
    <glyph glyph-name="wdieresis" unicode="&#x1e85;" horiz-adv-x="1466" 
d="M434 1188v225h205v-225h-205zM830 1188v225h204v-225h-204zM317 0l-307 999h260l170 -626l189 626h209l188 -624l172 624h260l-309 -999h-219l-197 655l-196 -655h-220z" />
    <glyph glyph-name="wgrave" unicode="&#x1e81;" horiz-adv-x="1466" 
d="M645 1124l-308 289h260l226 -289h-178zM317 0l-307 999h260l170 -626l189 626h209l188 -624l172 624h260l-309 -999h-219l-197 655l-196 -655h-220z" />
    <glyph glyph-name="x" unicode="x" horiz-adv-x="1030" 
d="M10 0l342 504l-342 495h297l207 -329l207 329h299l-344 -495l344 -504h-299l-207 336l-207 -336h-297z" />
    <glyph glyph-name="y" unicode="y" horiz-adv-x="1032" 
d="M201 -430l184 457l-391 972h268l252 -694l256 694h268l-571 -1429h-266z" />
    <glyph glyph-name="yacute" unicode="&#xfd;" horiz-adv-x="1032" 
d="M397 1124l225 289h260l-307 -289h-178zM201 -430l184 457l-391 972h268l252 -694l256 694h268l-571 -1429h-266z" />
    <glyph glyph-name="ycircumflex" unicode="&#x177;" horiz-adv-x="1032" 
d="M198 1098l316 352l317 -352h-188l-129 145l-127 -145h-189zM201 -430l184 457l-391 972h268l252 -694l256 694h268l-571 -1429h-266z" />
    <glyph glyph-name="ydieresis" unicode="&#xff;" horiz-adv-x="1032" 
d="M215 1188v225h205v-225h-205zM611 1188v225h204v-225h-204zM201 -430l184 457l-391 972h268l252 -694l256 694h268l-571 -1429h-266z" />
    <glyph glyph-name="ygrave" unicode="&#x1ef3;" horiz-adv-x="1032" 
d="M426 1124l-308 289h260l226 -289h-178zM201 -430l184 457l-391 972h268l252 -694l256 694h268l-571 -1429h-266z" />
    <glyph glyph-name="uni1EF9" unicode="&#x1ef9;" horiz-adv-x="1032" 
d="M643 1105c-157 0 -186 144 -260 144c-41 0 -65 -49 -65 -137h-140c0 184 82 286 213 286c142 0 185 -141 254 -141c35 0 62 47 62 135h145c0 -184 -80 -287 -209 -287zM201 -430l184 457l-391 972h268l252 -694l256 694h268l-571 -1429h-266z" />
    <glyph glyph-name="z" unicode="z" horiz-adv-x="1004" 
d="M934 999v-174l-542 -620h542v-205h-881v162l565 633h-536v204h852z" />
    <glyph glyph-name="zacute" unicode="&#x17a;" horiz-adv-x="1004" 
d="M860 1413l-307 -289h-178l225 289h260zM934 999v-174l-542 -620h542v-205h-881v162l565 633h-536v204h852z" />
    <glyph glyph-name="zcaron" unicode="&#x17e;" horiz-adv-x="1004" 
d="M809 1413l-317 -332l-316 332h189l127 -135l129 135h188zM934 999v-174l-542 -620h542v-205h-881v162l565 633h-536v204h852z" />
    <glyph glyph-name="zdotaccent" unicode="&#x17c;" horiz-adv-x="1004" 
d="M621 1413v-225h-256v225h256zM934 999v-174l-542 -620h542v-205h-881v162l565 633h-536v204h852z" />
    <glyph glyph-name="T_h" horiz-adv-x="2128" 
d="M463 0v1186h-443v227h1334v-530c80 98 190 137 288 137c263 0 369 -211 369 -420v-600h-248v569c0 123 -32 230 -180 230c-156 0 -229 -127 -229 -293v-506h-248v1186h-389v-1186h-254z" />
    <glyph glyph-name="f_t" horiz-adv-x="1309" 
d="M1055 -20c-197 0 -314 114 -314 296v519h-313v-795h-244v795h-164v204h164v72c0 229 197 363 422 363c160 0 283 -27 377 -74v-361h252v-204h-252v-476c0 -96 49 -124 113 -124c51 0 106 20 139 36v-221c-37 -14 -111 -30 -180 -30zM428 999h317v222
c-28 10 -75 16 -127 16c-131 0 -190 -70 -190 -170v-68z" />
    <glyph glyph-name="t_t" horiz-adv-x="1405" 
d="M500 -20c-197 0 -314 114 -314 296v519h-161v204h165v248l238 174v-422h414v248l237 174v-422h252v-204h-252v-476c0 -96 49 -124 113 -124c51 0 106 20 139 36v-221c-37 -14 -110 -30 -180 -30c-197 0 -313 114 -313 296v519h-410v-476c0 -96 49 -124 113 -124
c51 0 106 20 139 36v-221c-37 -14 -111 -30 -180 -30z" />
    <glyph glyph-name="ordfeminine" unicode="&#xaa;" horiz-adv-x="954" 
d="M393 709c-131 0 -248 84 -248 219c0 155 123 219 279 219h194c0 18 -2 37 -6 51c-16 66 -61 100 -149 100c-86 0 -141 -53 -178 -106l-119 80c84 114 170 162 301 162c186 0 295 -115 295 -285v-426h-133l-4 84c-62 -68 -136 -98 -232 -98zM420 846c78 0 145 47 178 106
c10 19 18 41 20 62h-184c-80 0 -129 -33 -129 -86c0 -45 60 -82 115 -82z" />
    <glyph glyph-name="ordmasculine" unicode="&#xba;" horiz-adv-x="991" 
d="M496 711c-213 0 -359 163 -359 362c0 197 146 361 359 361c211 0 356 -164 356 -361c0 -199 -145 -362 -356 -362zM496 856c135 0 188 96 188 217s-53 217 -188 217c-138 0 -191 -96 -191 -217s53 -217 191 -217z" />
    <glyph glyph-name="uni01C3" unicode="&#x1c3;" horiz-adv-x="594" 
d="M205 428l-29 985h242l-29 -985h-184zM164 0v264h266v-264h-266z" />
    <glyph glyph-name="uni03BC" unicode="&#x3bc;" horiz-adv-x="1298" 
d="M219 -328v1327h242v-569c0 -131 65 -225 190 -225c137 0 226 74 226 248v546h241v-999h-241v117c-80 -99 -197 -137 -295 -137c-66 0 -121 12 -166 34v-342h-197z" />
    <glyph glyph-name="pi" unicode="&#x3c0;" horiz-adv-x="1004" 
d="M834 -20c-146 0 -234 102 -234 258v557h-227v-795h-205v795h-82v204h801v-204h-82v-525c0 -94 24 -110 45 -110c10 0 24 2 41 14l65 -160c-36 -24 -79 -34 -122 -34z" />
    <glyph glyph-name="zero" unicode="0" horiz-adv-x="1188" 
d="M604 -20c-438 0 -491 428 -491 727c0 301 49 729 477 729c389 0 489 -379 489 -731c0 -351 -96 -725 -475 -725zM598 219c215 0 219 268 219 490c0 227 -6 483 -227 483s-228 -258 -228 -485c0 -226 7 -488 236 -488z" />
    <glyph glyph-name="one" unicode="1" horiz-adv-x="1188" 
d="M571 1413h240v-1413h-250v999h-330v193h189c96 0 151 41 151 135v86z" />
    <glyph glyph-name="two" unicode="2" horiz-adv-x="1188" 
d="M511 229h593v-229h-1010v201c250 149 686 458 686 798c0 113 -59 205 -198 205c-185 0 -240 -160 -246 -305l-248 16c0 263 180 517 492 517c260 0 454 -156 454 -439c0 -307 -312 -638 -523 -764z" />
    <glyph glyph-name="three" unicode="3" horiz-adv-x="1188" 
d="M582 -20c-281 0 -525 153 -525 466l242 15c0 -158 123 -248 287 -248c145 0 278 72 278 223c0 201 -186 207 -346 207v193c238 0 268 71 268 180c0 123 -90 182 -204 182c-129 0 -215 -76 -217 -201l-240 17c0 266 209 420 453 420c235 0 452 -144 452 -387
c0 -111 -45 -226 -184 -291c188 -51 260 -187 260 -340c0 -287 -248 -436 -524 -436z" />
    <glyph glyph-name="four" unicode="4" horiz-adv-x="1188" 
d="M928 563h225v-231h-225v-332h-250v332h-653v147l690 934h213v-850zM350 563h328v462z" />
    <glyph glyph-name="five" unicode="5" horiz-adv-x="1188" 
d="M621 971c264 0 481 -221 481 -490c0 -268 -236 -501 -518 -501c-254 0 -459 192 -510 430l235 65c27 -129 103 -266 275 -266c153 0 260 137 260 274c0 140 -94 260 -260 260c-92 0 -189 -49 -240 -131l-229 58l137 743h786v-233h-585l-51 -264c77 41 147 55 219 55z" />
    <glyph glyph-name="six" unicode="6" horiz-adv-x="1188" 
d="M780 932c189 -70 330 -246 330 -459c0 -272 -231 -493 -514 -493c-285 0 -516 221 -516 491c0 98 31 186 78 262l422 680h290l-282 -446c67 1 132 -11 192 -35zM596 215c147 0 266 117 266 258s-119 258 -266 258c-150 0 -268 -117 -268 -258s118 -258 268 -258z" />
    <glyph glyph-name="seven" unicode="7" horiz-adv-x="1188" 
d="M86 1413h1020v-129l-627 -1284h-280l599 1182h-712v231z" />
    <glyph glyph-name="eight" unicode="8" horiz-adv-x="1188" 
d="M592 -20c-270 0 -522 141 -522 426c0 159 80 284 204 358c-88 74 -133 174 -133 285c0 245 217 385 451 385c233 0 450 -142 450 -383c0 -117 -51 -217 -133 -287c133 -78 205 -203 205 -356c0 -289 -254 -428 -522 -428zM596 838c119 0 205 69 205 192s-88 193 -205 193
c-111 0 -205 -62 -205 -189c0 -119 80 -196 205 -196zM590 197c149 0 272 75 272 235c0 154 -117 240 -272 240c-158 0 -273 -86 -273 -238c0 -162 125 -237 273 -237z" />
    <glyph glyph-name="nine" unicode="9" horiz-adv-x="1188" 
d="M592 1433c285 0 516 -221 516 -491c0 -98 -31 -186 -78 -262l-422 -680h-290l282 446c-67 -1 -132 11 -192 35c-189 70 -330 246 -330 459c0 272 231 493 514 493zM592 682c150 0 268 117 268 258s-118 258 -268 258c-147 0 -266 -117 -266 -258s119 -258 266 -258z" />
    <glyph glyph-name="fraction" unicode="&#x2044;" horiz-adv-x="328" 
d="M-348 0l852 1413h172l-852 -1413h-172z" />
    <glyph glyph-name="period" unicode="." horiz-adv-x="647" 
d="M201 0v264h245v-264h-245z" />
    <glyph glyph-name="comma" unicode="," horiz-adv-x="635" 
d="M135 -303l135 567h281l-254 -567h-162z" />
    <glyph glyph-name="colon" unicode=":" horiz-adv-x="676" 
d="M205 690v264h266v-264h-266zM205 0v264h266v-264h-266z" />
    <glyph glyph-name="semicolon" unicode=";" horiz-adv-x="659" 
d="M242 690v264h266v-264h-266zM100 -303l136 567h280l-254 -567h-162z" />
    <glyph glyph-name="ellipsis" unicode="&#x2026;" horiz-adv-x="1475" 
d="M201 0v264h245v-264h-245zM614 0v264h246v-264h-246zM1028 0v264h246v-264h-246z" />
    <glyph glyph-name="exclam" unicode="!" horiz-adv-x="635" 
d="M225 428l-28 985h241l-28 -985h-185zM184 0v264h267v-264h-267z" />
    <glyph glyph-name="exclamdown" unicode="&#xa1;" horiz-adv-x="635" 
d="M184 1413h267v-264h-267v264zM225 985h185l28 -985h-241z" />
    <glyph glyph-name="question" unicode="?" horiz-adv-x="997" 
d="M387 424v145c0 330 334 232 334 469c0 133 -94 193 -232 193c-161 0 -229 -86 -229 -240h-215c0 281 174 443 436 443c242 0 453 -138 453 -400c0 -366 -340 -327 -340 -467v-143h-207zM360 0v264h267v-264h-267z" />
    <glyph glyph-name="questiondown" unicode="&#xbf;" horiz-adv-x="997" 
d="M637 1413v-264h-267v264h267zM610 989v-145c0 -330 -334 -232 -334 -469c0 -133 94 -193 232 -193c161 0 229 86 229 240h215c0 -281 -174 -443 -436 -443c-242 0 -453 138 -453 400c0 366 340 327 340 467v143h207z" />
    <glyph glyph-name="periodcentered" unicode="&#xb7;" horiz-adv-x="616" 
d="M307 590c-84 0 -147 67 -147 149s65 148 147 148s150 -64 150 -148c0 -82 -66 -149 -150 -149z" />
    <glyph glyph-name="bullet" unicode="&#x2022;" horiz-adv-x="758" 
d="M379 244c-131 0 -238 106 -238 237s107 238 238 238s237 -107 237 -238s-106 -237 -237 -237z" />
    <glyph glyph-name="asterisk" unicode="*" horiz-adv-x="901" 
d="M340 834l-158 102l158 160l-227 30l61 168l209 -82l-29 201h195l-29 -201l209 82l59 -168l-227 -30l158 -160l-158 -102l-110 208z" />
    <glyph glyph-name="numbersign" unicode="#" horiz-adv-x="1382" 
d="M223 0l88 414h-231v172h268l55 262h-241v180h278l90 385h193l-88 -393h250l84 393h192l-90 -393h234v-172h-271l-57 -262h246v-172h-283l-88 -414h-190l88 414h-250l-86 -414h-191zM541 586h250l53 262h-250z" />
    <glyph glyph-name="slash" unicode="/" horiz-adv-x="897" 
d="M-35 -430l740 1843h227l-739 -1843h-228z" />
    <glyph glyph-name="backslash" unicode="\" horiz-adv-x="934" 
d="M743 -430l-780 1946h227l781 -1946h-228z" />
    <glyph glyph-name="twodotenleader" unicode="&#x2025;" horiz-adv-x="1061" 
d="M201 0v264h245v-264h-245zM614 0v264h246v-264h-246z" />
    <glyph glyph-name="uni2023" unicode="&#x2023;" horiz-adv-x="915" 
d="M205 143v779l665 -390z" />
    <glyph glyph-name="parenleft" unicode="(" horiz-adv-x="573" 
d="M346 -125c-153 160 -246 526 -246 832c0 389 99 667 242 827h219c-186 -229 -268 -502 -268 -832c0 -372 86 -591 266 -827h-213z" />
    <glyph glyph-name="parenright" unicode=")" horiz-adv-x="573" 
d="M227 -125h-213c180 236 266 455 266 827c0 330 -82 603 -268 832h219c143 -160 242 -438 242 -827c0 -306 -93 -672 -246 -832z" />
    <glyph glyph-name="braceleft" unicode="{" horiz-adv-x="618" 
d="M408 -156c-150 0 -224 111 -224 283v299c0 123 -71 145 -131 168v160c60 22 131 45 131 168v299c0 176 80 282 224 282h157v-157h-73c-78 0 -101 -58 -101 -129v-299c0 -138 -57 -201 -141 -238v-12c84 -39 141 -101 141 -238v-299c0 -72 23 -129 101 -129h73v-158h-157z
" />
    <glyph glyph-name="braceright" unicode="}" horiz-adv-x="618" 
d="M210 -156h-157v158h73c78 0 101 57 101 129v299c0 137 57 199 141 238v12c-84 37 -141 100 -141 238v299c0 71 -23 129 -101 129h-73v157h157c144 0 224 -106 224 -282v-299c0 -123 71 -146 131 -168v-160c-60 -23 -131 -45 -131 -168v-299c0 -172 -74 -283 -224 -283z
" />
    <glyph glyph-name="bracketleft" unicode="[" horiz-adv-x="641" 
d="M176 -164v1737h432v-162h-235v-1411h235v-164h-432z" />
    <glyph glyph-name="bracketright" unicode="]" horiz-adv-x="641" 
d="M465 -164h-432v164h235v1411h-235v162h432v-1737z" />
    <glyph glyph-name="hyphen" unicode="-" horiz-adv-x="866" 
d="M141 508v184h584v-184h-584z" />
    <glyph glyph-name="uni00AD" unicode="&#xad;" horiz-adv-x="1010" 
d="M141 508v184h727v-184h-727z" />
    <glyph glyph-name="endash" unicode="&#x2013;" horiz-adv-x="1051" 
d="M141 508v184h768v-184h-768z" />
    <glyph glyph-name="emdash" unicode="&#x2014;" horiz-adv-x="2048" 
d="M0 508v184h2048v-184h-2048z" />
    <glyph glyph-name="underscore" unicode="_" horiz-adv-x="1247" 
d="M199 -184v184h850v-184h-850z" />
    <glyph glyph-name="uni2015" unicode="&#x2015;" horiz-adv-x="1542" 
d="M141 508v184h1260v-184h-1260z" />
    <glyph glyph-name="quotesinglbase" unicode="&#x201a;" horiz-adv-x="553" 
d="M135 -303l135 567h281l-254 -567h-162z" />
    <glyph glyph-name="quotedblbase" unicode="&#x201e;" horiz-adv-x="987" 
d="M106 -303l135 567h281l-254 -567h-162zM516 -303l135 567h281l-254 -567h-162z" />
    <glyph glyph-name="quotedblleft" unicode="&#x201c;" horiz-adv-x="967" 
d="M472 846h-162l-254 567h281zM861 846h-162l-254 567h281z" />
    <glyph glyph-name="quotedblright" unicode="&#x201d;" horiz-adv-x="967" 
d="M106 846l135 567h281l-254 -567h-162zM495 846l135 567h281l-254 -567h-162z" />
    <glyph glyph-name="quoteleft" unicode="&#x2018;" horiz-adv-x="578" 
d="M472 846h-162l-254 567h281z" />
    <glyph glyph-name="quoteright" unicode="&#x2019;" horiz-adv-x="578" 
d="M106 846l135 567h281l-254 -567h-162z" />
    <glyph glyph-name="guillemotleft" unicode="&#xab;" horiz-adv-x="1028" 
d="M448 156l-428 354l428 356v-211l-180 -145l180 -143v-211zM883 156l-428 354l428 356v-211l-181 -145l181 -143v-211z" />
    <glyph glyph-name="guillemotright" unicode="&#xbb;" horiz-adv-x="1028" 
d="M145 156v211l181 143l-181 145v211l428 -356zM580 156v211l180 143l-180 145v211l428 -356z" />
    <glyph glyph-name="guilsinglleft" unicode="&#x2039;" horiz-adv-x="594" 
d="M449 156l-428 354l428 356v-211l-181 -145l181 -143v-211z" />
    <glyph glyph-name="guilsinglright" unicode="&#x203a;" horiz-adv-x="594" 
d="M145 156v211l181 143l-181 145v211l428 -356z" />
    <glyph glyph-name="quotedbl" unicode="&#x22;" horiz-adv-x="958" 
d="M203 866v547h205v-547h-205zM551 866v547h205v-547h-205z" />
    <glyph glyph-name="quotesingle" unicode="'" horiz-adv-x="610" 
d="M203 895v518h205v-518h-205z" />
    <glyph glyph-name="space" unicode=" " horiz-adv-x="494" 
 />
    <glyph glyph-name="uni00A0" unicode="&#xa0;" horiz-adv-x="563" 
 />
    <glyph glyph-name="cent" unicode="&#xa2;" horiz-adv-x="1118" 
d="M516 -213v199c-272 37 -405 270 -405 512c0 241 131 479 405 518v184h123v-182c176 -14 315 -111 385 -293l-231 -90c-23 80 -78 141 -154 158v-586c76 16 131 76 154 153l221 -84c-62 -172 -199 -278 -375 -294v-193zM516 213v573c-113 -38 -158 -163 -158 -288
c0 -127 45 -248 158 -285z" />
    <glyph glyph-name="currency" unicode="&#xa4;" horiz-adv-x="1348" 
d="M303 129l-129 135l107 105c-109 155 -107 368 0 524l-105 102l129 135l107 -108c157 108 368 111 524 2l106 104l132 -129l-107 -104c109 -158 109 -371 0 -528l107 -103l-130 -135l-108 109c-156 -109 -369 -109 -526 0zM465 426c117 -117 299 -117 414 0
c112 115 114 297 0 410c-115 112 -297 112 -412 -2c-111 -113 -113 -297 -2 -408z" />
    <glyph glyph-name="dollar" unicode="$" horiz-adv-x="1137" 
d="M1077 412c0 -246 -187 -402 -428 -425v-247l-102 -2v247c-236 14 -459 150 -502 414l252 64c16 -159 120 -238 250 -252v417c-190 74 -408 156 -408 416c0 238 185 377 408 389v226h102v-229c146 -18 277 -95 361 -244l-211 -129c-35 69 -88 116 -150 138v-351
c194 -75 428 -158 428 -432zM393 1057c0 -82 65 -130 154 -171v321c-88 -9 -154 -67 -154 -150zM649 213c113 19 174 90 174 176c0 97 -74 151 -174 196v-372z" />
    <glyph glyph-name="Euro" unicode="&#x20ac;" horiz-adv-x="1266" 
d="M788 -20c-290 0 -456 204 -518 473h-174l78 180h72c-2 26 -2 49 -2 74c0 28 2 61 2 86h-150l78 186h98c66 264 230 457 514 457c162 0 299 -72 396 -205l-156 -123c-57 76 -143 109 -240 109c-161 0 -258 -97 -294 -238h516l-78 -182h-471c-2 -27 -4 -47 -4 -74
s2 -57 4 -82h549l-78 -180h-438c36 -162 135 -262 296 -262c99 0 175 32 234 112l147 -145c-96 -121 -229 -186 -381 -186z" />
    <glyph glyph-name="florin" unicode="&#x192;" horiz-adv-x="942" 
d="M78 -436v184c192 0 256 62 256 283v786h-178v182h178v125c0 189 135 324 301 324c94 0 166 -37 248 -107l-133 -155c-50 43 -70 57 -115 57c-47 0 -96 -31 -96 -119v-125h229v-182h-229v-807c0 -313 -166 -446 -461 -446z" />
    <glyph glyph-name="sterling" unicode="&#xa3;" horiz-adv-x="1200" 
d="M464 205h714v-205h-1041v207c125 53 246 160 246 268c0 39 -10 94 -21 129h-221v205h172c-16 41 -37 133 -37 227c0 226 152 410 431 410c202 0 346 -143 405 -311l-190 -70c-41 109 -117 176 -215 176c-142 0 -226 -67 -226 -209c0 -80 21 -170 43 -223h477v-205h-430
c7 -31 13 -80 13 -125c0 -123 -47 -213 -120 -274z" />
    <glyph glyph-name="uni20B1" unicode="&#x20b1;" horiz-adv-x="1350" 
d="M1284 1053v-103h-92c-23 -235 -226 -364 -497 -364h-191v-586h-252v950h-119v103h119v360h443c266 0 467 -129 496 -360h93zM504 1176v-123h430c-23 79 -98 123 -239 123h-191zM695 823c149 0 224 44 242 127h-433v-127h191z" />
    <glyph glyph-name="uni20B3" unicode="&#x20b3;" horiz-adv-x="1651" 
d="M166 0l98 246h-119v217h205l53 133h-258v217h347l239 600h191l239 -600h344v-217h-258l53 -133h205v-217h-119l99 -246h-275l-90 246h-588l-90 -246h-276zM743 813h168l-84 227zM614 463h426l-49 133h-327z" />
    <glyph glyph-name="uni20B4" unicode="&#x20b4;" horiz-adv-x="1454" 
d="M1163 983h164v-176h-1198v176h762c14 21 22 46 22 74c0 90 -77 151 -178 151c-94 0 -178 -55 -227 -151l-211 129c96 172 256 248 430 248c238 0 440 -140 440 -390c0 -22 -1 -42 -4 -61zM129 522v176h1198v-176h-777c-41 -35 -67 -80 -67 -143c0 -111 103 -170 246 -170
c131 0 234 65 270 194l250 -57c-65 -246 -295 -362 -536 -362c-264 0 -484 141 -484 364c0 76 26 132 58 174h-158z" />
    <glyph glyph-name="uni20B8" unicode="&#x20b8;" horiz-adv-x="1376" 
d="M119 1206v207h1138v-207h-1138zM561 0v854h-442v207h1138v-207h-442v-854h-254z" />
    <glyph glyph-name="uni20BD" unicode="&#x20bd;" horiz-adv-x="1354" 
d="M317 0v262h-178v197h178v147h-178v217h178v590h443c289 0 500 -151 500 -418c0 -264 -211 -389 -500 -389h-191v-147h334v-197h-334v-262h-252zM569 823h191c174 0 248 60 248 172c0 115 -76 181 -248 181h-191v-353z" />
    <glyph glyph-name="yen" unicode="&#xa5;" horiz-adv-x="1425" 
d="M582 0v211h-316v197h316v133h-316v196h201l-416 676h307l353 -618l354 618h309l-413 -676h196v-196h-311v-133h311v-197h-311v-211h-264z" />
    <glyph glyph-name="plus" unicode="+" horiz-adv-x="1192" 
d="M504 106v426h-426v185h426v426h184v-426h426v-185h-426v-426h-184z" />
    <glyph glyph-name="minus" unicode="&#x2212;" horiz-adv-x="1262" 
d="M215 537v184h832v-184h-832z" />
    <glyph glyph-name="multiply" unicode="&#xd7;" horiz-adv-x="1073" 
d="M838 173l-301 302l-301 -302l-131 131l301 301l-301 302l130 130l301 -302l302 302l131 -131l-302 -301l302 -302z" />
    <glyph glyph-name="divide" unicode="&#xf7;" horiz-adv-x="1020" 
d="M377 834v264h266v-264h-266zM84 537v184h852v-184h-852zM377 143v265h266v-265h-266z" />
    <glyph glyph-name="equal" unicode="=" horiz-adv-x="1268" 
d="M219 793v206h830v-206h-830zM219 344v207h830v-207h-830z" />
    <glyph glyph-name="notequal" unicode="&#x2260;" horiz-adv-x="1194" 
d="M88 0l207 344h-117v207h242l145 242h-387v206h512l250 414h172l-250 -414h146v-206h-271l-145 -242h416v-207h-541l-207 -344h-172z" />
    <glyph glyph-name="greater" unicode="&#x3e;" horiz-adv-x="1307" 
d="M181 -29l-93 160l807 461l-807 461l93 159l1087 -620z" />
    <glyph glyph-name="less" unicode="&#x3c;" horiz-adv-x="1307" 
d="M1126 -29l-1087 621l1087 620l93 -159l-807 -461l807 -461z" />
    <glyph glyph-name="greaterequal" unicode="&#x2265;" horiz-adv-x="1356" 
d="M205 155l-93 160l807 461l-807 461l93 159l1087 -620zM1247 0v-184h-1135v184h1135z" />
    <glyph glyph-name="lessequal" unicode="&#x2264;" horiz-adv-x="1356" 
d="M1151 155l-1087 621l1087 620l93 -159l-807 -461l807 -461zM109 0h1135v-184h-1135v184z" />
    <glyph glyph-name="plusminus" unicode="&#xb1;" horiz-adv-x="1319" 
d="M567 188v426h-456v185h456v426h185v-426h456v-185h-456v-426h-185zM111 -184v184h1097v-184h-1097z" />
    <glyph glyph-name="approxequal" unicode="&#x2248;" horiz-adv-x="1225" 
d="M788 702c-241 0 -221 230 -356 230c-57 0 -90 -68 -90 -172h-184c0 201 108 336 274 336c248 0 232 -230 356 -230c56 0 95 82 95 195h184c0 -211 -111 -359 -279 -359zM788 209c-241 0 -221 229 -356 229c-57 0 -90 -67 -90 -172h-184c0 201 108 336 274 336
c248 0 232 -229 356 -229c56 0 95 82 95 194h184c0 -211 -111 -358 -279 -358z" />
    <glyph glyph-name="asciitilde" unicode="~" horiz-adv-x="1223" 
d="M788 332c-241 0 -221 229 -356 229c-57 0 -90 -67 -90 -172h-184c0 201 108 336 274 336c248 0 232 -229 356 -229c56 0 95 82 95 194h184c0 -211 -111 -358 -279 -358z" />
    <glyph glyph-name="logicalnot" unicode="&#xac;" horiz-adv-x="1300" 
d="M850 291v289h-715v217h948v-506h-233z" />
    <glyph glyph-name="asciicircum" unicode="^" horiz-adv-x="1231" 
d="M49 420l565 1077l568 -1077h-258l-310 620l-307 -620h-258z" />
    <glyph glyph-name="infinity" unicode="&#x221e;" horiz-adv-x="1880" 
d="M535 354c-250 0 -398 158 -398 381s148 381 398 381c139 0 292 -74 405 -215c115 143 268 215 406 215c249 0 397 -158 397 -381s-148 -381 -397 -381c-140 0 -293 74 -406 215c-115 -143 -268 -215 -405 -215zM565 551c78 0 191 59 266 184c-77 127 -188 185 -266 185
c-129 0 -211 -66 -211 -185s82 -184 211 -184zM1315 551c129 0 211 65 211 184s-82 185 -211 185c-78 0 -191 -60 -266 -185c77 -127 188 -184 266 -184z" />
    <glyph glyph-name="integral" unicode="&#x222b;" horiz-adv-x="899" 
d="M41 -457v205c225 0 307 72 307 272v1117c0 180 135 311 301 311c78 0 158 -29 223 -86l-131 -156c-34 29 -65 37 -92 37c-47 0 -96 -29 -96 -115v-1114c0 -307 -203 -471 -512 -471z" />
    <glyph glyph-name="uni2126" unicode="&#x2126;" horiz-adv-x="1673" 
d="M1276 195h252v-195h-580v188c221 33 363 238 363 525c0 131 -43 258 -113 329c-92 99 -233 160 -362 160s-269 -63 -363 -160c-70 -71 -113 -198 -113 -329c0 -289 142 -494 363 -525v-188h-580v203h272c-163 131 -268 332 -268 518c0 172 70 354 181 469
c129 133 325 217 508 217c182 0 378 -86 507 -219c111 -115 181 -297 181 -473c0 -193 -96 -394 -248 -520z" />
    <glyph glyph-name="uni2206" unicode="&#x2206;" horiz-adv-x="1288" 
d="M45 0l598 1491l600 -1491h-1198zM344 205h600l-301 788z" />
    <glyph glyph-name="product" unicode="&#x220f;" 
d="M236 0v1208h-82v205h1036v-205h-82v-1208h-205v1208h-463v-1208h-204z" />
    <glyph glyph-name="summation" unicode="&#x2211;" horiz-adv-x="1257" 
d="M1159 1413v-231h-676l478 -475l-478 -476h676v-231h-1093v113l565 594l-565 593v113h1093z" />
    <glyph glyph-name="radical" unicode="&#x221a;" horiz-adv-x="1202" 
d="M492 -242l-281 783h-158v204h305l146 -460l436 1128h219z" />
    <glyph glyph-name="uni00B5" unicode="&#xb5;" horiz-adv-x="1298" 
d="M219 -328v1327h242v-569c0 -131 65 -225 190 -225c137 0 226 74 226 248v546h241v-999h-241v117c-80 -99 -197 -137 -295 -137c-66 0 -121 12 -166 34v-342h-197z" />
    <glyph glyph-name="partialdiff" unicode="&#x2202;" horiz-adv-x="1282" 
d="M561 -12c-293 0 -463 194 -463 463c0 329 260 555 533 555c96 0 192 -29 280 -88c0 55 -6 104 -20 145c-39 129 -139 188 -256 188c-74 0 -182 -22 -238 -157l-178 55c72 178 232 281 438 281c353 0 498 -295 498 -666c0 -455 -219 -776 -594 -776zM575 197
c218 0 340 188 340 354c0 135 -79 256 -253 256c-228 0 -338 -189 -338 -354c0 -174 120 -256 251 -256z" />
    <glyph glyph-name="percent" unicode="%" horiz-adv-x="1427" 
d="M375 780c-174 0 -293 138 -293 328c0 188 117 326 287 326c168 0 290 -142 290 -328c0 -184 -120 -326 -284 -326zM203 0l852 1413h172l-852 -1413h-172zM375 944c69 0 121 68 121 162c0 98 -52 164 -127 164c-76 0 -123 -64 -123 -162c0 -100 49 -164 129 -164z
M1061 -20c-174 0 -293 137 -293 327c0 189 117 326 287 326c168 0 291 -141 291 -328c0 -184 -121 -325 -285 -325zM1061 143c69 0 121 68 121 162c0 98 -52 164 -127 164c-76 0 -123 -63 -123 -162c0 -100 49 -164 129 -164z" />
    <glyph glyph-name="perthousand" unicode="&#x2030;" horiz-adv-x="2079" 
d="M375 780c-174 0 -293 138 -293 328c0 188 117 326 287 326c168 0 290 -142 290 -328c0 -184 -120 -326 -284 -326zM203 0l852 1413h172l-852 -1413h-172zM375 944c69 0 121 68 121 162c0 98 -52 164 -127 164c-76 0 -123 -64 -123 -162c0 -100 49 -164 129 -164z
M1061 -20c-174 0 -293 137 -293 327c0 189 117 326 287 326c168 0 291 -141 291 -328c0 -184 -121 -325 -285 -325zM1712 -20c-174 0 -293 137 -293 327c0 189 117 326 287 326c168 0 291 -141 291 -328c0 -184 -121 -325 -285 -325zM1061 143c69 0 121 68 121 162
c0 98 -52 164 -127 164c-76 0 -123 -63 -123 -162c0 -100 49 -164 129 -164zM1712 143c70 0 121 68 121 162c0 98 -51 164 -127 164s-123 -63 -123 -162c0 -100 49 -164 129 -164z" />
    <glyph glyph-name="uni2031" unicode="&#x2031;" horiz-adv-x="2730" 
d="M375 780c-174 0 -293 138 -293 328c0 188 117 326 287 326c168 0 290 -142 290 -328c0 -184 -120 -326 -284 -326zM203 0l852 1413h172l-852 -1413h-172zM375 944c69 0 121 68 121 162c0 98 -52 164 -127 164c-76 0 -123 -64 -123 -162c0 -100 49 -164 129 -164z
M1061 -20c-174 0 -293 137 -293 327c0 189 117 326 287 326c168 0 291 -141 291 -328c0 -184 -121 -325 -285 -325zM1712 -20c-174 0 -293 137 -293 327c0 189 117 326 287 326c168 0 291 -141 291 -328c0 -184 -121 -325 -285 -325zM2363 -20c-174 0 -292 137 -292 327
c0 189 116 326 286 326c168 0 291 -141 291 -328c0 -184 -121 -325 -285 -325zM1061 143c69 0 121 68 121 162c0 98 -52 164 -127 164c-76 0 -123 -63 -123 -162c0 -100 49 -164 129 -164zM1712 143c70 0 121 68 121 162c0 98 -51 164 -127 164s-123 -63 -123 -162
c0 -100 49 -164 129 -164zM2363 143c70 0 121 68 121 162c0 98 -51 164 -127 164s-123 -63 -123 -162c0 -100 50 -164 129 -164z" />
    <glyph glyph-name="arrowright" unicode="&#x2192;" horiz-adv-x="2306" 
d="M1180 33l-82 162l626 352l-1654 -2v184l1652 2l-624 348l82 162l1087 -602z" />
    <glyph glyph-name="arrowleft" unicode="&#x2190;" horiz-adv-x="2306" 
d="M1126 33l-1087 606l1087 602l82 -162l-624 -348l1652 -2v-184l-1654 2l626 -352z" />
    <glyph glyph-name="lozenge" unicode="&#x25ca;" horiz-adv-x="1208" 
d="M442 0l-381 707l381 706h324l381 -706l-381 -707h-324zM592 127h24l291 580l-291 579h-24l-291 -579z" />
    <glyph glyph-name="uniF8FF" unicode="&#xf8ff;" horiz-adv-x="1712" 
d="M856 -61c-428 0 -774 346 -774 774s346 774 774 774s774 -346 774 -774s-346 -774 -774 -774zM856 10c389 0 703 314 703 703s-314 702 -703 702s-702 -313 -702 -702s313 -703 702 -703zM453 410c-19 0 -35 14 -35 34v537c0 20 16 37 35 37c20 0 36 -17 36 -37v-537
c0 -20 -16 -34 -36 -34zM856 410c-20 0 -35 14 -35 34v537c0 20 15 37 35 37c21 0 35 -17 35 -37v-537c0 -20 -14 -34 -35 -34zM1257 410c-8 0 -16 2 -22 10l-270 268c-7 8 -9 17 -9 25c0 10 2 18 9 24l270 269c6 8 14 12 22 12c19 0 37 -19 37 -37c0 -8 -2 -16 -10 -25
l-244 -243l244 -244c8 -8 10 -16 10 -25c0 -18 -18 -34 -37 -34zM588 678c-21 0 -35 14 -35 35c0 20 14 35 35 35h133c20 0 37 -15 37 -35c0 -21 -17 -35 -37 -35h-133z" />
    <glyph glyph-name="at" unicode="@" horiz-adv-x="2015" 
d="M999 -348c-493 0 -899 334 -899 868c0 508 367 912 916 912c559 0 903 -416 903 -887c0 -309 -150 -621 -465 -621c-129 0 -215 51 -256 139c-12 29 -20 60 -24 97c-84 -78 -191 -117 -293 -117c-228 0 -336 190 -336 401c0 269 176 617 485 617c125 0 213 -57 260 -135
l19 86h196c-43 -230 -151 -580 -151 -776c0 -84 20 -113 94 -113c205 0 281 229 281 426c0 366 -265 696 -711 696c-443 0 -727 -321 -727 -721c0 -428 325 -676 710 -676c93 0 166 15 242 39l68 -182c-97 -35 -195 -53 -312 -53zM897 238c213 0 328 243 328 434
c0 121 -47 194 -166 194c-215 0 -330 -241 -330 -430c0 -125 51 -198 168 -198z" />
    <glyph glyph-name="ampersand" unicode="&#x26;" horiz-adv-x="1382" 
d="M1327 78l-172 -154l-186 213c-115 -100 -261 -160 -426 -160c-258 0 -463 125 -463 353c0 214 160 336 327 435c-62 62 -167 181 -167 333c0 207 198 332 391 332c205 0 375 -144 375 -330c0 -171 -117 -283 -255 -376l200 -224c22 62 34 129 34 196l238 -24
c-7 -130 -44 -253 -106 -358zM475 1094c0 -74 75 -170 119 -221c106 64 186 131 186 223c0 75 -51 143 -147 143c-84 0 -158 -51 -158 -145zM537 184c116 0 214 45 289 117l-267 305c-133 -82 -244 -163 -244 -280c0 -95 91 -142 222 -142z" />
    <glyph glyph-name="paragraph" unicode="&#xb6;" horiz-adv-x="1303" 
d="M518 -246v869c-233 0 -452 145 -452 395s219 395 452 395h170v-1659h-170zM909 -246v1659h172v-1659h-172z" />
    <glyph glyph-name="section" unicode="&#xa7;" horiz-adv-x="1112" 
d="M561 -18c-199 0 -397 86 -438 294l233 70c27 -121 97 -168 222 -168c108 0 190 35 190 113c0 209 -598 67 -598 436c0 88 35 152 86 207c-61 55 -84 121 -84 190c0 203 193 310 389 310c180 0 324 -88 379 -191l-195 -113c-24 70 -92 115 -192 115
c-121 0 -178 -65 -178 -125c0 -192 598 -49 598 -432c0 -72 -21 -141 -80 -205c55 -51 80 -116 80 -192c0 -223 -215 -309 -412 -309zM684 571c53 19 84 60 84 111c0 113 -143 137 -311 176c-60 -27 -82 -84 -82 -123c0 -104 151 -127 309 -164z" />
    <glyph glyph-name="copyright" unicode="&#xa9;" horiz-adv-x="1686" 
d="M844 -29c-422 0 -762 328 -762 736c0 407 340 735 762 735c420 0 760 -328 760 -735c0 -408 -340 -736 -760 -736zM844 125c336 0 608 260 608 582c0 321 -272 581 -608 581c-338 0 -611 -260 -611 -581c0 -322 273 -582 611 -582zM864 279c-268 0 -397 208 -397 426
c0 215 127 428 395 428c164 0 293 -78 357 -242l-191 -74c-22 78 -84 135 -166 135c-137 0 -192 -125 -192 -247c0 -125 53 -244 192 -244c82 0 144 53 166 131l180 -70c-53 -153 -180 -243 -344 -243z" />
    <glyph glyph-name="registered" unicode="&#xae;" horiz-adv-x="1686" 
d="M844 -29c-422 0 -762 328 -762 736c0 407 340 735 762 735c420 0 760 -328 760 -735c0 -408 -340 -736 -760 -736zM844 125c336 0 608 260 608 582c0 321 -272 581 -608 581c-338 0 -611 -260 -611 -581c0 -322 273 -582 611 -582zM590 289v835h270
c172 0 293 -100 293 -247c0 -99 -61 -181 -158 -218l230 -370h-185l-202 354h-43h-45v-354h-160zM750 774h124c76 4 119 43 119 100c0 66 -49 107 -131 107h-112v-207z" />
    <glyph glyph-name="trademark" unicode="&#x2122;" horiz-adv-x="1292" 
d="M197 877v397h-146v139h443v-139h-146v-397h-151zM600 877v536h248l74 -317l73 317h244v-536h-152v380l-116 -380h-97l-122 380v-380h-152z" />
    <glyph glyph-name="degree" unicode="&#xb0;" horiz-adv-x="877" 
d="M438 848c-159 0 -293 131 -293 293s134 293 293 293c162 0 293 -131 293 -293s-131 -293 -293 -293zM438 1012c74 0 131 57 131 129c0 71 -57 129 -131 129c-71 0 -129 -58 -129 -129c0 -72 58 -129 129 -129z" />
    <glyph glyph-name="bar" unicode="|" horiz-adv-x="623" 
d="M221 -512v2046h180v-2046h-180z" />
    <glyph glyph-name="brokenbar" unicode="&#xa6;" horiz-adv-x="643" 
d="M221 731v744h201v-744h-201zM221 -307v727h201v-727h-201z" />
    <glyph glyph-name="dagger" unicode="&#x2020;" horiz-adv-x="778" 
d="M279 -205v1014h-222v221h222v383h221v-383h221v-221h-221v-1014h-221z" />
    <glyph glyph-name="daggerdbl" unicode="&#x2021;" horiz-adv-x="893" 
d="M336 -205v383h-221v221h221v410h-221v221h221v383h221v-383h221v-221h-221v-410h221v-221h-221v-383h-221z" />
    <glyph glyph-name="uni2116" unicode="&#x2116;" horiz-adv-x="2376" 
d="M1028 427v986h244v-1413h-254l-592 995v-995h-244v1413h252zM1872 332c-254 0 -420 196 -420 430c0 231 166 426 420 426s422 -195 422 -426c0 -234 -168 -430 -422 -430zM1872 1014c-152 0 -211 -119 -211 -252c0 -135 59 -256 211 -256c151 0 213 121 213 256
c0 133 -62 252 -213 252zM1452 0v184h827v-184h-827z" />
    <glyph glyph-name="uni02F5" unicode="&#x2f5;" horiz-adv-x="1110" 
d="M395 670l-307 329h260l225 -329h-178zM825 670l-307 329h260l226 -329h-179z" />
    <glyph glyph-name="uni02F6" unicode="&#x2f6;" horiz-adv-x="1110" 
d="M285 670h-179l226 329h260zM715 670h-178l225 329h260z" />
    <glyph glyph-name="uni02D0" unicode="&#x2d0;" horiz-adv-x="561" 
d="M281 522l-252 477h503zM29 0l252 477l251 -477h-503z" />
    <glyph glyph-name="uni02D1" unicode="&#x2d1;" horiz-adv-x="561" 
d="M281 211l-252 479h503z" />
    <glyph glyph-name="uni0308" unicode="&#x308;" horiz-adv-x="0" 
d="M-742 1188v225h205v-225h-205zM-346 1188v225h204v-225h-204z" />
    <glyph glyph-name="uni0307" unicode="&#x307;" horiz-adv-x="0" 
d="M-398 1188v225h256v-225h-256z" />
    <glyph glyph-name="gravecomb" unicode="&#x300;" horiz-adv-x="0" 
d="M-210 1124l-308 289h260l226 -289h-178z" />
    <glyph glyph-name="acutecomb" unicode="&#x301;" horiz-adv-x="0" 
d="M-504 1124l225 289h260l-307 -289h-178z" />
    <glyph glyph-name="uni030B" unicode="&#x30b;" horiz-adv-x="0" 
d="M-889 1083l225 330h219l-266 -330h-178zM-500 1083l225 330h260l-307 -330h-178z" />
    <glyph glyph-name="caroncomb.alt" horiz-adv-x="0" 
d="M-408 958l115 455h256l-228 -455h-143z" />
    <glyph glyph-name="uni0302" unicode="&#x302;" horiz-adv-x="0" 
d="M-643 1098l316 352l317 -352h-188l-129 145l-127 -145h-189z" />
    <glyph glyph-name="uni030C" unicode="&#x30c;" horiz-adv-x="0" 
d="M-329 1081l-316 332h189l127 -135l129 135h188z" />
    <glyph glyph-name="uni0306" unicode="&#x306;" horiz-adv-x="0" 
d="M-405 1143c-220 0 -316 96 -316 270h172c0 -88 64 -127 144 -127c83 0 143 43 143 127h172c0 -182 -107 -270 -315 -270z" />
    <glyph glyph-name="uni030A" unicode="&#x30a;" horiz-adv-x="0" 
d="M-318 1069c-129 0 -229 107 -229 231c0 127 102 230 229 230c125 0 232 -100 232 -230c0 -129 -103 -231 -232 -231zM-318 1200c60 0 101 43 101 103c0 55 -37 96 -101 96c-59 0 -98 -41 -98 -96c0 -60 43 -103 98 -103z" />
    <glyph glyph-name="tildecomb" unicode="&#x303;" horiz-adv-x="0" 
d="M-309 1126c-157 0 -186 144 -260 144c-41 0 -65 -49 -65 -137h-140c0 184 82 286 213 286c142 0 185 -141 254 -141c35 0 62 47 62 135h145c0 -184 -80 -287 -209 -287z" />
    <glyph glyph-name="uni0304" unicode="&#x304;" horiz-adv-x="0" 
d="M-699 1147v143h559v-143h-559z" />
    <glyph glyph-name="uni030F" unicode="&#x30f;" horiz-adv-x="0" 
d="M-424 1083h-178l-307 330h260zM-35 1083h-178l-266 330h219z" />
    <glyph glyph-name="uni0312" unicode="&#x312;" horiz-adv-x="0" 
d="M-78 1434l-135 -315h-254l248 315h141z" />
    <glyph glyph-name="uni031B" unicode="&#x31b;" horiz-adv-x="0" 
d="M-410 999v160c108 0 131 92 131 156v98h184v-80c0 -182 -90 -334 -315 -334z" />
    <glyph glyph-name="uni0326" unicode="&#x326;" horiz-adv-x="0" 
d="M-418 -459l135 353h254l-248 -353h-141z" />
    <glyph glyph-name="uni0327" unicode="&#x327;" horiz-adv-x="0" 
d="M-305 -522c-84 0 -164 53 -197 129l136 57c10 -26 36 -47 67 -47c47 0 80 33 80 78c0 63 -68 110 -168 110h-70l123 193h144l-76 -98c20 -2 39 -6 55 -13c88 -28 135 -94 135 -184c0 -127 -98 -225 -229 -225z" />
    <glyph glyph-name="uni0328" unicode="&#x328;" horiz-adv-x="0" 
d="M-262 -451c-129 0 -225 82 -225 205c0 162 164 246 164 246h190c-20 -6 -209 -84 -209 -213c0 -72 35 -88 74 -88c43 0 76 20 103 57l122 -84c-47 -71 -116 -123 -219 -123z" />
    <glyph glyph-name="uni0337" unicode="&#x337;" horiz-adv-x="0" 
d="M-986 238v270l598 674v-269z" />
    <glyph glyph-name="acute" unicode="&#xb4;" horiz-adv-x="537" 
d="M33 1124l225 289h260l-307 -289h-178z" />
    <glyph glyph-name="breve" unicode="&#x2d8;" horiz-adv-x="811" 
d="M406 1143c-220 0 -316 96 -316 270h172c0 -88 64 -127 144 -127c83 0 143 43 143 127h172c0 -182 -107 -270 -315 -270z" />
    <glyph glyph-name="caron" unicode="&#x2c7;" horiz-adv-x="659" 
d="M330 1081l-316 332h189l127 -135l129 135h188z" />
    <glyph glyph-name="cedilla" unicode="&#xb8;" horiz-adv-x="561" 
d="M256 -522c-84 0 -164 53 -197 129l136 57c10 -26 36 -47 67 -47c47 0 80 33 80 78c0 63 -68 110 -168 110h-70l123 193h144l-76 -98c20 -2 39 -6 55 -13c88 -28 135 -94 135 -184c0 -127 -98 -225 -229 -225z" />
    <glyph glyph-name="circumflex" unicode="&#x2c6;" horiz-adv-x="653" 
d="M10 1098l316 352l317 -352h-188l-129 145l-127 -145h-189z" />
    <glyph glyph-name="dieresis" unicode="&#xa8;" horiz-adv-x="842" 
d="M141 1188v225h205v-225h-205zM537 1188v225h204v-225h-204z" />
    <glyph glyph-name="dotaccent" unicode="&#x2d9;" horiz-adv-x="539" 
d="M151 1188v225h256v-225h-256z" />
    <glyph glyph-name="grave" unicode="`" horiz-adv-x="532" 
d="M322 1124l-308 289h260l226 -289h-178z" />
    <glyph glyph-name="hungarumlaut" unicode="&#x2dd;" horiz-adv-x="883" 
d="M35 1083l225 330h219l-266 -330h-178zM424 1083l225 330h260l-307 -330h-178z" />
    <glyph glyph-name="macron" unicode="&#xaf;" horiz-adv-x="838" 
d="M139 1147v143h559v-143h-559z" />
    <glyph glyph-name="ogonek" unicode="&#x2db;" horiz-adv-x="573" 
d="M311 -451c-129 0 -225 82 -225 205c0 162 164 246 164 246h190c-20 -6 -209 -84 -209 -213c0 -72 35 -88 74 -88c43 0 76 20 103 57l122 -84c-47 -71 -116 -123 -219 -123z" />
    <glyph glyph-name="ring" unicode="&#x2da;" horiz-adv-x="633" 
d="M315 1069c-129 0 -229 107 -229 231c0 127 102 230 229 230c125 0 232 -100 232 -230c0 -129 -103 -231 -232 -231zM315 1200c60 0 101 43 101 103c0 55 -37 96 -101 96c-59 0 -98 -41 -98 -96c0 -60 43 -103 98 -103z" />
    <glyph glyph-name="tilde" unicode="&#x2dc;" horiz-adv-x="872" 
d="M598 1126c-157 0 -186 144 -260 144c-41 0 -65 -49 -65 -137h-140c0 184 82 286 213 286c142 0 185 -141 254 -141c35 0 62 47 62 135h145c0 -184 -80 -287 -209 -287z" />
    <glyph glyph-name="tonos" unicode="&#x384;" horiz-adv-x="442" 
d="M121 1124l41 289h198l-122 -289h-117z" />
    <glyph glyph-name="dieresistonos" unicode="&#x385;" horiz-adv-x="758" 
d="M283 1538l41 289h198l-122 -289h-117zM41 1188v225h205v-225h-205zM437 1188v225h204v-225h-204z" />
    <glyph glyph-name="uni0483" unicode="&#x483;" horiz-adv-x="0" 
d="M-975 1577v354h604v125h250v-356h-611v-123h-243z" />
    </font>
</defs>
</svg>
