<?xml version="1.0" standalone="no"?>
<!DOCTYPE svg PUBLIC "-//W3C//DTD SVG 1.1//EN" "http://www.w3.org/Graphics/SVG/1.1/DTD/svg11.dtd" >
<svg xmlns="http://www.w3.org/2000/svg" xmlns:xlink="http://www.w3.org/1999/xlink" version="1.1">
<metadata>
Created by FontForge 20190801 at Sun Apr 15 16:29:42 2018
 By Unknown
Copyright \(c\) 2018 by Alfredo Marco Pradil. All rights reserved.
</metadata>
<defs>
<font id="HKGrotesk-RegularLegacy" horiz-adv-x="0" >
  <font-face 
    font-family="HK Grotesk Legacy"
    font-weight="400"
    font-stretch="normal"
    units-per-em="2048"
    panose-1="0 0 5 0 0 0 0 0 0 0"
    ascent="1434"
    descent="-614"
    x-height="999"
    cap-height="1413"
    bbox="-970 -516 2640 2240"
    underline-thickness="82"
    underline-position="-246"
    stemh="82"
    stemv="132"
    unicode-range="U+0020-FB02"
  />
<missing-glyph horiz-adv-x="1188" 
d="M179 0v959h830v-959h-830zM241 61h706v837h-706v-837z" />
    <glyph glyph-name="f_f" unicode="ff" horiz-adv-x="1221" 
d="M214 0v887h-174v112h174v94c0 206 166 335 377 335c87 0 169 -20 242 -65c52 43 122 65 207 65c55 0 106 -14 154 -37l-44 -109c-34 17 -66 28 -98 28c-111 0 -172 -53 -172 -168v-143h311v-112h-311v-887h-137v887h-398v-887h-131zM345 999h399v155c0 49 11 90 31 122
c-51 29 -110 44 -178 44c-160 0 -252 -92 -252 -229v-92z" />
    <glyph glyph-name="f_f_i" unicode="ffi" horiz-adv-x="1582" 
d="M1407 999v-999h-131v887h-400v-887h-133v887h-398v-887h-131v887h-174v112h174v94c0 206 166 335 377 335c93 0 186 -24 262 -77c63 52 148 77 242 77c126 0 219 -34 303 -95l-64 -92c-64 50 -141 79 -233 79c-146 0 -225 -72 -225 -240v-81h531zM743 999v83
c0 75 15 137 43 187c-51 30 -114 51 -189 51c-160 0 -252 -92 -252 -229v-92h398z" />
    <glyph glyph-name="f_f_l" unicode="ffl" horiz-adv-x="1663" 
d="M1467 -15c-150 0 -191 85 -191 226v1061c-49 30 -109 48 -175 48c-146 0 -225 -72 -225 -240v-81h228v-112h-228v-887h-133v887h-398v-887h-131v887h-174v112h174v94c0 206 166 335 377 335c95 0 186 -24 263 -76c61 51 146 76 241 76c126 0 219 -34 312 -98v-1085
c0 -77 9 -141 117 -141c23 0 55 4 86 10l2 -113c-45 -9 -100 -16 -145 -16zM345 999h398v83c0 80 18 141 47 185c-54 33 -118 53 -193 53c-160 0 -252 -92 -252 -229v-92z" />
    <glyph glyph-name="fi" unicode="fi" horiz-adv-x="1046" 
d="M868 999v-999h-122v887h-401v-887h-131v887h-174v112h174v83c0 238 156 346 350 346c126 0 219 -34 304 -95l-63 -92c-65 50 -141 79 -235 79c-144 0 -225 -72 -225 -240v-81h523z" />
    <glyph glyph-name="fl" unicode="fl" horiz-adv-x="1111" 
d="M920 -15c-143 0 -185 85 -185 226v1054c-52 35 -113 55 -184 55c-137 0 -213 -72 -213 -240v-81h223l-1 -112h-222v-887h-132v887h-166v112h166v83c0 238 150 346 339 346c124 0 201 -24 322 -97v-1086c0 -77 11 -141 110 -141c21 0 51 4 81 10l2 -113
c-44 -9 -97 -16 -140 -16z" />
    <glyph glyph-name="h_d_c_o.liga" unicode="hdco" horiz-adv-x="1810" 
d="M905 -61c-428 0 -774 346 -774 774s346 774 774 774s774 -346 774 -774s-346 -774 -774 -774zM905 10c389 0 703 314 703 703s-314 702 -703 702s-702 -313 -702 -702s313 -703 702 -703zM502 410c-19 0 -35 14 -35 34v537c0 20 16 37 35 37c20 0 37 -17 37 -37v-537
c0 -20 -17 -34 -37 -34zM905 410c-20 0 -35 14 -35 34v537c0 20 15 37 35 37c21 0 35 -17 35 -37v-537c0 -20 -14 -34 -35 -34zM1307 410c-9 0 -17 2 -23 10l-270 268c-6 8 -8 17 -8 25c0 10 2 18 8 24l266 263c9 11 20 15 30 15c18 0 33 -15 33 -34c0 -8 -2 -16 -10 -25
l-243 -243l243 -244c8 -8 10 -16 10 -25c0 -18 -18 -34 -36 -34zM637 678c-21 0 -35 14 -35 35c0 20 14 35 35 35h133c21 0 37 -15 37 -35c0 -21 -16 -35 -37 -35h-133z" />
    <glyph glyph-name=".notdef" horiz-adv-x="1188" 
d="M179 0v959h830v-959h-830zM241 61h706v837h-706v-837z" />
    <glyph glyph-name="A" unicode="A" horiz-adv-x="1302" 
d="M69 0l525 1413h115l524 -1413h-149l-120 341h-623l-122 -341h-150zM384 460h537l-269 761z" />
    <glyph glyph-name="Aacute" unicode="&#xc1;" horiz-adv-x="1302" 
d="M584 1540l218 286h142l-259 -286h-101zM69 0l525 1413h115l524 -1413h-149l-120 341h-623l-122 -341h-150zM384 460h537l-269 761z" />
    <glyph glyph-name="Abreve" unicode="&#x102;" horiz-adv-x="1302" 
d="M649 1561c-205 0 -305 94 -305 265h96c0 -122 80 -183 209 -183c131 0 208 63 208 183h96c0 -175 -105 -265 -304 -265zM69 0l525 1413h115l524 -1413h-149l-120 341h-623l-122 -341h-150zM384 460h537l-269 761z" />
    <glyph glyph-name="uni1EAE" unicode="&#x1eae;" horiz-adv-x="1302" 
d="M584 1954l218 286h142l-259 -286h-101zM649 1561c-205 0 -305 94 -305 265h96c0 -122 80 -183 209 -183c131 0 208 63 208 183h96c0 -175 -105 -265 -304 -265zM69 0l525 1413h115l524 -1413h-149l-120 341h-623l-122 -341h-150zM384 460h537l-269 761z" />
    <glyph glyph-name="uni1EB0" unicode="&#x1eb0;" horiz-adv-x="1302" 
d="M598 1954l-259 286h142l218 -286h-101zM649 1561c-205 0 -305 94 -305 265h96c0 -122 80 -183 209 -183c131 0 208 63 208 183h96c0 -175 -105 -265 -304 -265zM69 0l525 1413h115l524 -1413h-149l-120 341h-623l-122 -341h-150zM384 460h537l-269 761z" />
    <glyph glyph-name="uni1EB4" unicode="&#x1eb4;" horiz-adv-x="1302" 
d="M789 1974c-167 0 -168 179 -279 178c-63 1 -102 -59 -102 -160h-80c0 155 72 246 187 245c154 1 162 -177 275 -177c55 0 95 65 95 169h83c0 -158 -71 -255 -179 -255zM649 1561c-205 0 -305 94 -305 265h96c0 -122 80 -183 209 -183c131 0 208 63 208 183h96
c0 -175 -105 -265 -304 -265zM69 0l525 1413h115l524 -1413h-149l-120 341h-623l-122 -341h-150zM384 460h537l-269 761z" />
    <glyph glyph-name="uni01CD" unicode="&#x1cd;" horiz-adv-x="1302" 
d="M648 1518l-301 308h111l190 -195l192 195h111zM69 0l525 1413h115l524 -1413h-149l-120 341h-623l-122 -341h-150zM384 460h537l-269 761z" />
    <glyph glyph-name="Acircumflex" unicode="&#xc2;" horiz-adv-x="1302" 
d="M347 1526l301 319l302 -319h-110l-192 201l-190 -201h-111zM69 0l525 1413h115l524 -1413h-149l-120 341h-623l-122 -341h-150zM384 460h537l-269 761z" />
    <glyph glyph-name="uni1EA4" unicode="&#x1ea4;" horiz-adv-x="1302" 
d="M584 1953l218 286h142l-259 -286h-101zM347 1526l301 319l302 -319h-110l-192 201l-190 -201h-111zM69 0l525 1413h115l524 -1413h-149l-120 341h-623l-122 -341h-150zM384 460h537l-269 761z" />
    <glyph glyph-name="uni1EA6" unicode="&#x1ea6;" horiz-adv-x="1302" 
d="M598 1953l-259 286h142l218 -286h-101zM347 1526l301 319l302 -319h-110l-192 201l-190 -201h-111zM69 0l525 1413h115l524 -1413h-149l-120 341h-623l-122 -341h-150zM384 460h537l-269 761z" />
    <glyph glyph-name="uni1EAA" unicode="&#x1eaa;" horiz-adv-x="1302" 
d="M789 1973c-167 0 -168 179 -279 178c-63 1 -102 -59 -102 -160h-80c0 155 72 246 187 245c154 1 162 -177 275 -177c55 0 95 65 95 169h83c0 -158 -71 -255 -179 -255zM347 1526l301 319l302 -319h-110l-192 201l-190 -201h-111zM69 0l525 1413h115l524 -1413h-149
l-120 341h-623l-122 -341h-150zM384 460h537l-269 761z" />
    <glyph glyph-name="Adieresis" unicode="&#xc4;" horiz-adv-x="1302" 
d="M409 1621v205h113v-205h-113zM773 1621v205h112v-205h-112zM69 0l525 1413h115l524 -1413h-149l-120 341h-623l-122 -341h-150zM384 460h537l-269 761z" />
    <glyph glyph-name="Agrave" unicode="&#xc0;" horiz-adv-x="1302" 
d="M598 1540l-259 286h142l218 -286h-101zM69 0l525 1413h115l524 -1413h-149l-120 341h-623l-122 -341h-150zM384 460h537l-269 761z" />
    <glyph glyph-name="Amacron" unicode="&#x100;" horiz-adv-x="1302" 
d="M376 1633v82h548v-82h-548zM69 0l525 1413h115l524 -1413h-149l-120 341h-623l-122 -341h-150zM384 460h537l-269 761z" />
    <glyph glyph-name="Aogonek" unicode="&#x104;" horiz-adv-x="1302" 
d="M1248 -289l70 -48c-52 -76 -118 -119 -215 -119c-125 0 -208 73 -208 190c0 140 130 239 217 266h-28l-120 341h-623l-122 -341h-150l525 1413h115l524 -1413c-109 -30 -255 -123 -255 -250c0 -85 48 -121 122 -121c64 0 109 27 148 82zM384 460h537l-269 761z" />
    <glyph glyph-name="Aring" unicode="&#xc5;" horiz-adv-x="1302" 
d="M646 1508c-108 0 -193 88 -193 194c0 108 86 194 193 194c106 0 195 -86 195 -194s-86 -194 -195 -194zM646 1583c68 0 119 53 119 120c0 66 -49 117 -119 117c-67 0 -117 -51 -117 -117c0 -68 51 -120 117 -120zM69 0l525 1413h115l524 -1413h-149l-120 341h-623
l-122 -341h-150zM384 460h537l-269 761z" />
    <glyph glyph-name="Atilde" unicode="&#xc3;" horiz-adv-x="1302" 
d="M789 1560c-167 0 -168 179 -279 178c-63 1 -102 -59 -102 -160h-80c0 155 72 246 187 245c154 1 162 -177 275 -177c55 0 95 65 95 169h83c0 -158 -71 -255 -179 -255zM69 0l525 1413h115l524 -1413h-149l-120 341h-623l-122 -341h-150zM384 460h537l-269 761z" />
    <glyph glyph-name="AE" unicode="&#xc6;" horiz-adv-x="1933" 
d="M69 0l522 1413h1216v-122h-766v-523h667v-117h-667v-526h766v-125h-903v341h-565l-120 -341h-150zM382 450h522v846h-225z" />
    <glyph glyph-name="B" unicode="B" horiz-adv-x="1272" 
d="M224 0v1413h428c237 0 423 -108 423 -363c0 -144 -85 -259 -191 -302c156 -38 260 -181 260 -357c0 -254 -187 -391 -451 -391h-469zM361 794h334c139 0 253 86 253 248c0 163 -108 246 -294 246h-293v-494zM361 131h334c205 0 314 92 314 275c0 160 -104 268 -278 268
h-370v-543z" />
    <glyph glyph-name="C" unicode="C" horiz-adv-x="1455" 
d="M773 -15c-422 0 -640 305 -640 724s218 721 648 721c280 0 472 -130 576 -382l-129 -52c-71 211 -221 302 -448 302c-341 0 -511 -232 -511 -584c0 -337 150 -598 504 -598c222 0 369 95 458 306l128 -52c-111 -252 -310 -385 -586 -385z" />
    <glyph glyph-name="Cacute" unicode="&#x106;" horiz-adv-x="1455" 
d="M666 1540l218 286h142l-259 -286h-101zM773 -15c-422 0 -640 305 -640 724s218 721 648 721c280 0 472 -130 576 -382l-129 -52c-71 211 -221 302 -448 302c-341 0 -511 -232 -511 -584c0 -337 150 -598 504 -598c222 0 369 95 458 306l128 -52
c-111 -252 -310 -385 -586 -385z" />
    <glyph glyph-name="Ccaron" unicode="&#x10c;" horiz-adv-x="1455" 
d="M730 1518l-301 308h111l190 -195l192 195h111zM773 -15c-422 0 -640 305 -640 724s218 721 648 721c280 0 472 -130 576 -382l-129 -52c-71 211 -221 302 -448 302c-341 0 -511 -232 -511 -584c0 -337 150 -598 504 -598c222 0 369 95 458 306l128 -52
c-111 -252 -310 -385 -586 -385z" />
    <glyph glyph-name="Ccedilla" unicode="&#xc7;" horiz-adv-x="1455" 
d="M1359 370c-102 -231 -278 -363 -520 -382l-75 -121c24 -1 45 -4 64 -8c114 -23 175 -85 175 -178c0 -117 -83 -197 -208 -197c-83 0 -162 53 -193 129l78 33c17 -48 65 -82 118 -82c77 0 123 42 123 112c0 74 -67 123 -182 131c-25 2 -53 3 -87 3l103 175
c-410 9 -622 311 -622 724c0 419 218 721 648 721c280 0 472 -130 576 -382l-129 -52c-71 211 -221 302 -448 302c-341 0 -511 -232 -511 -584c0 -337 150 -598 504 -598c222 0 369 95 458 306z" />
    <glyph glyph-name="Cdotaccent" unicode="&#x10a;" horiz-adv-x="1455" 
d="M661 1621v205h138v-205h-138zM773 -15c-422 0 -640 305 -640 724s218 721 648 721c280 0 472 -130 576 -382l-129 -52c-71 211 -221 302 -448 302c-341 0 -511 -232 -511 -584c0 -337 150 -598 504 -598c222 0 369 95 458 306l128 -52c-111 -252 -310 -385 -586 -385z
" />
    <glyph glyph-name="D" unicode="D" horiz-adv-x="1456" 
d="M224 0v1413h381c468 0 721 -257 721 -717c0 -442 -259 -696 -723 -696h-379zM361 127h230c376 0 598 182 598 574c0 394 -190 585 -586 585h-242v-1159z" />
    <glyph glyph-name="uni01F1" unicode="&#x1f1;" horiz-adv-x="2742" 
d="M605 1413c468 0 721 -257 721 -717c0 -442 -259 -696 -723 -696h-379v1413h381zM2640 1413v-107l-927 -1181h924v-125h-1110v104l929 1182h-882v127h1066zM591 127c376 0 598 182 598 574c0 394 -190 585 -586 585h-242v-1159h230z" />
    <glyph glyph-name="uni01C4" unicode="&#x1c4;" horiz-adv-x="2742" 
d="M2390 1826l-303 -308l-301 308h111l190 -195l192 195h111zM605 1413c468 0 721 -257 721 -717c0 -442 -259 -696 -723 -696h-379v1413h381zM2640 1413v-107l-927 -1181h924v-125h-1110v104l929 1182h-882v127h1066zM591 127c376 0 598 182 598 574
c0 394 -190 585 -586 585h-242v-1159h230z" />
    <glyph glyph-name="Eth" unicode="&#xd0;" horiz-adv-x="1456" 
d="M605 1413c468 0 721 -257 721 -717c0 -442 -259 -696 -723 -696h-379v661h-151v92h151v660h381zM591 127c376 0 598 182 598 574c0 394 -190 585 -586 585h-242v-533h347v-92h-347v-534h230z" />
    <glyph glyph-name="Dcaron" unicode="&#x10e;" horiz-adv-x="1456" 
d="M744 1518l-301 308h111l190 -195l192 195h111zM224 0v1413h381c468 0 721 -257 721 -717c0 -442 -259 -696 -723 -696h-379zM361 127h230c376 0 598 182 598 574c0 394 -190 585 -586 585h-242v-1159z" />
    <glyph glyph-name="Dcroat" unicode="&#x110;" horiz-adv-x="1456" 
d="M605 1413c468 0 721 -257 721 -717c0 -442 -259 -696 -723 -696h-379v661h-151v92h151v660h381zM591 127c376 0 598 182 598 574c0 394 -190 585 -586 585h-242v-533h347v-92h-347v-534h230z" />
    <glyph glyph-name="uni01F2" unicode="&#x1f2;" horiz-adv-x="2439" 
d="M605 1413c468 0 721 -257 721 -717c0 -442 -259 -696 -723 -696h-379v1413h381zM591 127c376 0 598 182 598 574c0 394 -190 585 -586 585h-242v-1159h230zM2359 999v-106l-655 -780h650v-113h-826v97l669 790h-636v112h798z" />
    <glyph glyph-name="uni01C5" unicode="&#x1c5;" horiz-adv-x="2439" 
d="M605 1413c468 0 721 -257 721 -717c0 -442 -259 -696 -723 -696h-379v1413h381zM2244 1413l-303 -308l-301 308h111l190 -195l192 195h111zM591 127c376 0 598 182 598 574c0 394 -190 585 -586 585h-242v-1159h230zM2359 999v-106l-655 -780h650v-113h-826v97l669 790
h-636v112h798z" />
    <glyph glyph-name="E" unicode="E" horiz-adv-x="1274" 
d="M224 0v1413h924v-127h-787v-513h708v-127h-708v-516h787v-130h-924z" />
    <glyph glyph-name="Eacute" unicode="&#xc9;" horiz-adv-x="1274" 
d="M622 1540l218 286h142l-259 -286h-101zM224 0v1413h924v-127h-787v-513h708v-127h-708v-516h787v-130h-924z" />
    <glyph glyph-name="Ecaron" unicode="&#x11a;" horiz-adv-x="1274" 
d="M686 1518l-301 308h111l190 -195l192 195h111zM224 0v1413h924v-127h-787v-513h708v-127h-708v-516h787v-130h-924z" />
    <glyph glyph-name="Ecircumflex" unicode="&#xca;" horiz-adv-x="1274" 
d="M385 1526l301 319l302 -319h-110l-192 201l-190 -201h-111zM224 0v1413h924v-127h-787v-513h708v-127h-708v-516h787v-130h-924z" />
    <glyph glyph-name="uni1EBE" unicode="&#x1ebe;" horiz-adv-x="1274" 
d="M622 1953l218 286h142l-259 -286h-101zM385 1526l301 319l302 -319h-110l-192 201l-190 -201h-111zM224 0v1413h924v-127h-787v-513h708v-127h-708v-516h787v-130h-924z" />
    <glyph glyph-name="uni1EC0" unicode="&#x1ec0;" horiz-adv-x="1274" 
d="M636 1953l-259 286h142l218 -286h-101zM385 1526l301 319l302 -319h-110l-192 201l-190 -201h-111zM224 0v1413h924v-127h-787v-513h708v-127h-708v-516h787v-130h-924z" />
    <glyph glyph-name="uni1EC4" unicode="&#x1ec4;" horiz-adv-x="1274" 
d="M827 1973c-167 0 -168 179 -279 178c-63 1 -102 -59 -102 -160h-80c0 155 72 246 187 245c154 1 162 -177 275 -177c55 0 95 65 95 169h83c0 -158 -71 -255 -179 -255zM385 1526l301 319l302 -319h-110l-192 201l-190 -201h-111zM224 0v1413h924v-127h-787v-513h708v-127
h-708v-516h787v-130h-924z" />
    <glyph glyph-name="Edieresis" unicode="&#xcb;" horiz-adv-x="1274" 
d="M447 1621v205h113v-205h-113zM811 1621v205h112v-205h-112zM224 0v1413h924v-127h-787v-513h708v-127h-708v-516h787v-130h-924z" />
    <glyph glyph-name="Edotaccent" unicode="&#x116;" horiz-adv-x="1274" 
d="M617 1621v205h138v-205h-138zM224 0v1413h924v-127h-787v-513h708v-127h-708v-516h787v-130h-924z" />
    <glyph glyph-name="Egrave" unicode="&#xc8;" horiz-adv-x="1274" 
d="M636 1540l-259 286h142l218 -286h-101zM224 0v1413h924v-127h-787v-513h708v-127h-708v-516h787v-130h-924z" />
    <glyph glyph-name="Emacron" unicode="&#x112;" horiz-adv-x="1274" 
d="M414 1633v82h548v-82h-548zM224 0v1413h924v-127h-787v-513h708v-127h-708v-516h787v-130h-924z" />
    <glyph glyph-name="Eogonek" unicode="&#x118;" horiz-adv-x="1274" 
d="M1163 -289l70 -48c-52 -76 -118 -119 -215 -119c-125 0 -208 73 -208 190c0 140 130 239 217 266h-803v1413h924v-127h-787v-513h708v-127h-708v-516h787v-130c-109 -30 -255 -123 -255 -250c0 -85 48 -121 122 -121c64 0 109 27 148 82z" />
    <glyph glyph-name="uni1EBC" unicode="&#x1ebc;" horiz-adv-x="1274" 
d="M827 1560c-167 0 -168 179 -279 178c-63 1 -102 -59 -102 -160h-80c0 155 72 246 187 245c154 1 162 -177 275 -177c55 0 95 65 95 169h83c0 -158 -71 -255 -179 -255zM224 0v1413h924v-127h-787v-513h708v-127h-708v-516h787v-130h-924z" />
    <glyph glyph-name="F" unicode="F" horiz-adv-x="1260" 
d="M224 0v1413h955v-127h-818v-513h718v-127h-718v-646h-137z" />
    <glyph glyph-name="G" unicode="G" horiz-adv-x="1541" 
d="M773 -15c-422 0 -640 305 -640 724s217 721 648 721c279 0 471 -130 575 -382l-123 -52c-77 214 -228 313 -453 313c-341 0 -511 -243 -511 -595c0 -337 150 -605 504 -605c245 0 408 123 459 360l3 146h-345v113h480v-728h-110l-12 254c-92 -171 -254 -269 -475 -269z
" />
    <glyph glyph-name="Gbreve" unicode="&#x11e;" horiz-adv-x="1541" 
d="M776 1561c-205 0 -305 94 -305 265h96c0 -122 80 -183 209 -183c131 0 208 63 208 183h96c0 -175 -105 -265 -304 -265zM773 -15c-422 0 -640 305 -640 724s217 721 648 721c279 0 471 -130 575 -382l-123 -52c-77 214 -228 313 -453 313c-341 0 -511 -243 -511 -595
c0 -337 150 -605 504 -605c245 0 408 123 459 360l3 146h-345v113h480v-728h-110l-12 254c-92 -171 -254 -269 -475 -269z" />
    <glyph glyph-name="uni0122" unicode="&#x122;" horiz-adv-x="1541" 
d="M773 -15c-422 0 -640 305 -640 724s217 721 648 721c279 0 471 -130 575 -382l-123 -52c-77 214 -228 313 -453 313c-341 0 -511 -243 -511 -595c0 -337 150 -605 504 -605c245 0 408 123 459 360l3 146h-345v113h480v-728h-110l-12 254c-92 -171 -254 -269 -475 -269z
M548 -447l182 334h141l-238 -334h-85z" />
    <glyph glyph-name="Gdotaccent" unicode="&#x120;" horiz-adv-x="1541" 
d="M706 1621v205h138v-205h-138zM773 -15c-422 0 -640 305 -640 724s217 721 648 721c279 0 471 -130 575 -382l-123 -52c-77 214 -228 313 -453 313c-341 0 -511 -243 -511 -595c0 -337 150 -605 504 -605c245 0 408 123 459 360l3 146h-345v113h480v-728h-110l-12 254
c-92 -171 -254 -269 -475 -269z" />
    <glyph glyph-name="H" unicode="H" horiz-adv-x="1464" 
d="M224 0v1413h137v-639h742v639h137v-1413h-137v647h-742v-647h-137z" />
    <glyph glyph-name="Hbar" unicode="&#x126;" horiz-adv-x="1464" 
d="M1375 1156v-82h-135v-1074h-137v647h-742v-647h-137v1074h-135v82h135v257h137v-257h742v257h137v-257h135zM1103 774v300h-742v-300h742z" />
    <glyph glyph-name="I" unicode="I" horiz-adv-x="586" 
d="M224 0v1413h137v-1413h-137z" />
    <glyph glyph-name="IJ" unicode="&#x132;" horiz-adv-x="1757" 
d="M224 0v1413h137v-1413h-137zM1115 -15c-266 0 -432 181 -450 428l135 14c13 -185 123 -314 315 -314c222 0 308 138 308 400v773h-575v127h712v-898c0 -326 -135 -530 -445 -530z" />
    <glyph glyph-name="Iacute" unicode="&#xcd;" horiz-adv-x="586" 
d="M227 1540l218 286h142l-259 -286h-101zM224 0v1413h137v-1413h-137z" />
    <glyph glyph-name="uni01CF" unicode="&#x1cf;" horiz-adv-x="586" 
d="M291 1518l-301 308h111l190 -195l192 195h111zM224 0v1413h137v-1413h-137z" />
    <glyph glyph-name="Icircumflex" unicode="&#xce;" horiz-adv-x="586" 
d="M-10 1526l301 319l302 -319h-110l-192 201l-190 -201h-111zM224 0v1413h137v-1413h-137z" />
    <glyph glyph-name="Idieresis" unicode="&#xcf;" horiz-adv-x="586" 
d="M52 1621v205h113v-205h-113zM416 1621v205h112v-205h-112zM224 0v1413h137v-1413h-137z" />
    <glyph glyph-name="Idotaccent" unicode="&#x130;" horiz-adv-x="586" 
d="M222 1621v205h138v-205h-138zM224 0v1413h137v-1413h-137z" />
    <glyph glyph-name="Igrave" unicode="&#xcc;" horiz-adv-x="586" 
d="M241 1540l-259 286h142l218 -286h-101zM224 0v1413h137v-1413h-137z" />
    <glyph glyph-name="Imacron" unicode="&#x12a;" horiz-adv-x="586" 
d="M19 1633v82h548v-82h-548zM224 0v1413h137v-1413h-137z" />
    <glyph glyph-name="Iogonek" unicode="&#x12e;" horiz-adv-x="586" 
d="M376 -289l70 -48c-52 -76 -118 -119 -215 -119c-125 0 -208 73 -208 190c0 140 130 239 217 266h-16v1413h137v-1413c-109 -30 -255 -123 -255 -250c0 -85 48 -121 122 -121c64 0 109 27 148 82z" />
    <glyph glyph-name="Itilde" unicode="&#x128;" horiz-adv-x="586" 
d="M432 1560c-167 0 -168 179 -279 178c-63 1 -102 -59 -102 -160h-80c0 155 72 246 187 245c154 1 162 -177 275 -177c55 0 95 65 95 169h83c0 -158 -71 -255 -179 -255zM224 0v1413h137v-1413h-137z" />
    <glyph glyph-name="J" unicode="J" horiz-adv-x="1171" 
d="M529 -15c-266 0 -432 181 -450 428l135 14c13 -185 123 -314 315 -314c222 0 308 138 308 400v773h-575v127h712v-898c0 -326 -135 -530 -445 -530z" />
    <glyph glyph-name="K" unicode="K" horiz-adv-x="1451" 
d="M224 0v1413h137v-849l808 849h185l-541 -557l569 -856h-170l-494 764l-357 -369v-395h-137z" />
    <glyph glyph-name="uni0136" unicode="&#x136;" horiz-adv-x="1451" 
d="M224 0v1413h137v-849l808 849h185l-541 -557l569 -856h-170l-494 764l-357 -369v-395h-137zM470 -447l182 334h141l-238 -334h-85z" />
    <glyph glyph-name="L" unicode="L" horiz-adv-x="1073" 
d="M224 0v1413h137v-1283h647v-130h-784z" />
    <glyph glyph-name="uni01C7" unicode="&#x1c7;" horiz-adv-x="2283" 
d="M224 0v1413h137v-1283h647v-130h-784zM1641 -15c-266 0 -432 181 -450 428l135 14c13 -185 123 -314 315 -314c222 0 308 138 308 400v773h-575v127h712v-898c0 -326 -135 -530 -445 -530z" />
    <glyph glyph-name="Lacute" unicode="&#x139;" horiz-adv-x="1073" 
d="M254 1540l218 286h142l-259 -286h-101zM224 0v1413h137v-1283h647v-130h-784z" />
    <glyph glyph-name="Lcaron" unicode="&#x13d;" horiz-adv-x="1073" 
d="M224 0v1413h137v-1283h647v-130h-784zM670 993l118 420h139l-174 -420h-83z" />
    <glyph glyph-name="uni013B" unicode="&#x13b;" horiz-adv-x="1073" 
d="M224 0v1413h137v-1283h647v-130h-784zM374 -447l182 334h141l-238 -334h-85z" />
    <glyph glyph-name="uni01C8" unicode="&#x1c8;" horiz-adv-x="1574" 
d="M224 0v1413h137v-1283h647v-130h-784zM1257 1208v205h139v-205h-139zM1129 -433c-50 0 -119 15 -162 32l35 115c40 -16 86 -26 115 -26c98 0 143 56 143 177v1134h133v-1125c0 -186 -83 -307 -264 -307z" />
    <glyph glyph-name="Lslash" unicode="&#x141;" horiz-adv-x="1073" 
d="M361 130h647v-130h-784v376l-135 -153v151l135 153v886h137v-731l337 382v-150l-337 -382v-402z" />
    <glyph glyph-name="M" unicode="M" horiz-adv-x="1777" 
d="M1363 1413h189v-1413h-132v1233l-465 -1117h-134l-465 1119v-1235h-132v1413h190l475 -1144z" />
    <glyph glyph-name="N" unicode="N" horiz-adv-x="1428" 
d="M1072 1413h132v-1413h-145l-703 1196v-1196h-132v1413h145l703 -1192v1192z" />
    <glyph glyph-name="uni01CA" unicode="&#x1ca;" horiz-adv-x="2599" 
d="M1072 221v1192h132v-1413h-145l-703 1196v-1196h-132v1413h145zM1690 1413h712v-898c0 -326 -135 -530 -445 -530c-266 0 -432 181 -450 428l135 14c13 -185 123 -314 315 -314c222 0 308 138 308 400v773h-575v127z" />
    <glyph glyph-name="Nacute" unicode="&#x143;" horiz-adv-x="1428" 
d="M1009 1826l-259 -286h-101l218 286h142zM1072 1413h132v-1413h-145l-703 1196v-1196h-132v1413h145l703 -1192v1192z" />
    <glyph glyph-name="Ncaron" unicode="&#x147;" horiz-adv-x="1428" 
d="M1016 1826l-303 -308l-301 308h111l190 -195l192 195h111zM1072 1413h132v-1413h-145l-703 1196v-1196h-132v1413h145l703 -1192v1192z" />
    <glyph glyph-name="uni0145" unicode="&#x145;" horiz-adv-x="1428" 
d="M1072 1413h132v-1413h-145l-703 1196v-1196h-132v1413h145l703 -1192v1192zM472 -447l182 334h141l-238 -334h-85z" />
    <glyph glyph-name="Eng" unicode="&#x14a;" horiz-adv-x="1430" 
d="M1072 1413h131v-1442c0 -176 -71 -315 -281 -315c-40 0 -97 8 -146 21l4 91c36 -12 80 -19 109 -19c131 0 194 73 194 169c0 26 -5 44 -13 58l-714 1224v-1200h-132v1413h145l703 -1198v1198z" />
    <glyph glyph-name="uni01CB" unicode="&#x1cb;" horiz-adv-x="1923" 
d="M1072 221v1192h132v-1413h-145l-703 1196v-1196h-132v1413h145zM1606 1413h139v-205h-139v205zM1609 -135v1134h133v-1125c0 -186 -83 -307 -264 -307c-50 0 -119 15 -162 32l35 115c40 -16 86 -26 115 -26c98 0 143 56 143 177z" />
    <glyph glyph-name="Ntilde" unicode="&#xd1;" horiz-adv-x="1428" 
d="M575 1738c-63 1 -102 -59 -102 -160h-80c0 155 72 246 187 245c154 1 162 -177 275 -177c55 0 95 65 95 169h83c0 -158 -71 -255 -179 -255c-167 0 -168 179 -279 178zM1072 1413h132v-1413h-145l-703 1196v-1196h-132v1413h145l703 -1192v1192z" />
    <glyph glyph-name="O" unicode="O" horiz-adv-x="1559" 
d="M778 -15c-440 0 -647 337 -647 722s207 721 647 721c443 0 649 -336 649 -721s-206 -722 -649 -722zM778 108c355 0 505 275 505 599c0 323 -150 599 -505 599c-352 0 -503 -276 -503 -599c0 -324 151 -599 503 -599z" />
    <glyph glyph-name="Oacute" unicode="&#xd3;" horiz-adv-x="1559" 
d="M713 1540l218 286h142l-259 -286h-101zM778 -15c-440 0 -647 337 -647 722s207 721 647 721c443 0 649 -336 649 -721s-206 -722 -649 -722zM778 108c355 0 505 275 505 599c0 323 -150 599 -505 599c-352 0 -503 -276 -503 -599c0 -324 151 -599 503 -599z" />
    <glyph glyph-name="uni01D1" unicode="&#x1d1;" horiz-adv-x="1559" 
d="M777 1518l-301 308h111l190 -195l192 195h111zM778 -15c-440 0 -647 337 -647 722s207 721 647 721c443 0 649 -336 649 -721s-206 -722 -649 -722zM778 108c355 0 505 275 505 599c0 323 -150 599 -505 599c-352 0 -503 -276 -503 -599c0 -324 151 -599 503 -599z" />
    <glyph glyph-name="Ocircumflex" unicode="&#xd4;" horiz-adv-x="1559" 
d="M476 1526l301 319l302 -319h-110l-192 201l-190 -201h-111zM778 -15c-440 0 -647 337 -647 722s207 721 647 721c443 0 649 -336 649 -721s-206 -722 -649 -722zM778 108c355 0 505 275 505 599c0 323 -150 599 -505 599c-352 0 -503 -276 -503 -599
c0 -324 151 -599 503 -599z" />
    <glyph glyph-name="uni1ED0" unicode="&#x1ed0;" horiz-adv-x="1559" 
d="M713 1953l218 286h142l-259 -286h-101zM476 1526l301 319l302 -319h-110l-192 201l-190 -201h-111zM778 -15c-440 0 -647 337 -647 722s207 721 647 721c443 0 649 -336 649 -721s-206 -722 -649 -722zM778 108c355 0 505 275 505 599c0 323 -150 599 -505 599
c-352 0 -503 -276 -503 -599c0 -324 151 -599 503 -599z" />
    <glyph glyph-name="uni1ED2" unicode="&#x1ed2;" horiz-adv-x="1559" 
d="M727 1953l-259 286h142l218 -286h-101zM476 1526l301 319l302 -319h-110l-192 201l-190 -201h-111zM778 -15c-440 0 -647 337 -647 722s207 721 647 721c443 0 649 -336 649 -721s-206 -722 -649 -722zM778 108c355 0 505 275 505 599c0 323 -150 599 -505 599
c-352 0 -503 -276 -503 -599c0 -324 151 -599 503 -599z" />
    <glyph glyph-name="uni1ED6" unicode="&#x1ed6;" horiz-adv-x="1559" 
d="M918 1973c-167 0 -168 179 -279 178c-63 1 -102 -59 -102 -160h-80c0 155 72 246 187 245c154 1 162 -177 275 -177c55 0 95 65 95 169h83c0 -158 -71 -255 -179 -255zM476 1526l301 319l302 -319h-110l-192 201l-190 -201h-111zM778 -15c-440 0 -647 337 -647 722
s207 721 647 721c443 0 649 -336 649 -721s-206 -722 -649 -722zM778 108c355 0 505 275 505 599c0 323 -150 599 -505 599c-352 0 -503 -276 -503 -599c0 -324 151 -599 503 -599z" />
    <glyph glyph-name="Odieresis" unicode="&#xd6;" horiz-adv-x="1559" 
d="M538 1621v205h113v-205h-113zM902 1621v205h112v-205h-112zM778 -15c-440 0 -647 337 -647 722s207 721 647 721c443 0 649 -336 649 -721s-206 -722 -649 -722zM778 108c355 0 505 275 505 599c0 323 -150 599 -505 599c-352 0 -503 -276 -503 -599
c0 -324 151 -599 503 -599z" />
    <glyph glyph-name="Ograve" unicode="&#xd2;" horiz-adv-x="1559" 
d="M727 1540l-259 286h142l218 -286h-101zM778 -15c-440 0 -647 337 -647 722s207 721 647 721c443 0 649 -336 649 -721s-206 -722 -649 -722zM778 108c355 0 505 275 505 599c0 323 -150 599 -505 599c-352 0 -503 -276 -503 -599c0 -324 151 -599 503 -599z" />
    <glyph glyph-name="Ohungarumlaut" unicode="&#x150;" horiz-adv-x="1559" 
d="M538 1520l218 306h122l-239 -306h-101zM880 1520l218 306h142l-259 -306h-101zM778 -15c-440 0 -647 337 -647 722s207 721 647 721c443 0 649 -336 649 -721s-206 -722 -649 -722zM778 108c355 0 505 275 505 599c0 323 -150 599 -505 599c-352 0 -503 -276 -503 -599
c0 -324 151 -599 503 -599z" />
    <glyph glyph-name="Omacron" unicode="&#x14c;" horiz-adv-x="1559" 
d="M505 1633v82h548v-82h-548zM778 -15c-440 0 -647 337 -647 722s207 721 647 721c443 0 649 -336 649 -721s-206 -722 -649 -722zM778 108c355 0 505 275 505 599c0 323 -150 599 -505 599c-352 0 -503 -276 -503 -599c0 -324 151 -599 503 -599z" />
    <glyph glyph-name="Oslash" unicode="&#xd8;" horiz-adv-x="1559" 
d="M1191 1291c160 -134 236 -350 236 -584c0 -385 -206 -722 -649 -722c-137 0 -251 32 -343 89l-46 -74h-103l78 125c-157 134 -233 349 -233 582c0 385 207 721 647 721c136 0 250 -32 342 -87l45 72h102zM275 707c0 -187 50 -357 160 -468l617 993
c-72 47 -163 74 -274 74c-352 0 -503 -276 -503 -599zM778 108c355 0 505 275 505 599c0 188 -51 359 -162 470l-618 -994c73 -48 164 -75 275 -75z" />
    <glyph glyph-name="Oslashacute" unicode="&#x1fe;" horiz-adv-x="1559" 
d="M1073 1826l-259 -286h-101l218 286h142zM1191 1291c160 -134 236 -350 236 -584c0 -385 -206 -722 -649 -722c-137 0 -251 32 -343 89l-46 -74h-103l78 125c-157 134 -233 349 -233 582c0 385 207 721 647 721c136 0 250 -32 342 -87l45 72h102zM275 707
c0 -187 50 -357 160 -468l617 993c-72 47 -163 74 -274 74c-352 0 -503 -276 -503 -599zM778 108c355 0 505 275 505 599c0 188 -51 359 -162 470l-618 -994c73 -48 164 -75 275 -75z" />
    <glyph glyph-name="Otilde" unicode="&#xd5;" horiz-adv-x="1559" 
d="M918 1560c-167 0 -168 179 -279 178c-63 1 -102 -59 -102 -160h-80c0 155 72 246 187 245c154 1 162 -177 275 -177c55 0 95 65 95 169h83c0 -158 -71 -255 -179 -255zM778 -15c-440 0 -647 337 -647 722s207 721 647 721c443 0 649 -336 649 -721s-206 -722 -649 -722z
M778 108c355 0 505 275 505 599c0 323 -150 599 -505 599c-352 0 -503 -276 -503 -599c0 -324 151 -599 503 -599z" />
    <glyph glyph-name="OE" unicode="&#x152;" horiz-adv-x="2341" 
d="M2215 1286h-787v-513h708v-127h-708v-516h787v-130h-924v231c-106 -149 -275 -246 -513 -246c-440 0 -647 337 -647 722s207 721 647 721c238 0 407 -97 513 -246v231h924v-127zM778 108c355 0 505 275 505 599c0 323 -150 599 -505 599c-352 0 -503 -276 -503 -599
c0 -324 151 -599 503 -599z" />
    <glyph glyph-name="P" unicode="P" horiz-adv-x="1182" 
d="M224 0v1413h388c285 0 475 -147 475 -400s-187 -395 -475 -395h-252v-618h-136zM360 748h252c226 0 339 94 339 265s-117 271 -339 271h-252v-536z" />
    <glyph glyph-name="Thorn" unicode="&#xde;" horiz-adv-x="1174" 
d="M224 0v1413h126v-204h285c284 0 442 -150 442 -391c0 -263 -184 -400 -470 -400h-257v-418h-126zM350 534h257c227 0 344 99 344 280c0 180 -121 286 -344 286h-257v-566z" />
    <glyph glyph-name="Q" unicode="Q" horiz-adv-x="1589" 
d="M1374 -87l-202 202c-101 -82 -232 -130 -395 -130c-440 0 -647 337 -647 722s207 721 647 721c443 0 649 -337 649 -722c0 -198 -55 -382 -163 -511l201 -197zM777 115c125 0 224 36 298 94l-235 227l90 83l233 -226c86 108 126 252 126 414c0 323 -157 591 -512 591
c-352 0 -510 -268 -510 -591c0 -324 158 -592 510 -592z" />
    <glyph glyph-name="R" unicode="R" horiz-adv-x="1264" 
d="M224 0v1413h396c272 0 470 -142 470 -394c0 -191 -116 -320 -299 -364l391 -655h-156l-369 641c-29 -2 -62 -3 -95 -3h-201v-638h-137zM362 752h269c206 3 322 97 322 265c0 172 -125 272 -332 272h-259v-537z" />
    <glyph glyph-name="Racute" unicode="&#x154;" horiz-adv-x="1264" 
d="M559 1540l218 286h142l-259 -286h-101zM224 0v1413h396c272 0 470 -142 470 -394c0 -191 -116 -320 -299 -364l391 -655h-156l-369 641c-29 -2 -62 -3 -95 -3h-201v-638h-137zM362 752h269c206 3 322 97 322 265c0 172 -125 272 -332 272h-259v-537z" />
    <glyph glyph-name="Rcaron" unicode="&#x158;" horiz-adv-x="1264" 
d="M623 1518l-301 308h111l190 -195l192 195h111zM224 0v1413h396c272 0 470 -142 470 -394c0 -191 -116 -320 -299 -364l391 -655h-156l-369 641c-29 -2 -62 -3 -95 -3h-201v-638h-137zM362 752h269c206 3 322 97 322 265c0 172 -125 272 -332 272h-259v-537z" />
    <glyph glyph-name="uni0156" unicode="&#x156;" horiz-adv-x="1264" 
d="M224 0v1413h396c272 0 470 -142 470 -394c0 -191 -116 -320 -299 -364l391 -655h-156l-369 641c-29 -2 -62 -3 -95 -3h-201v-638h-137zM362 752h269c206 3 322 97 322 265c0 172 -125 272 -332 272h-259v-537zM454 -447l182 334h141l-238 -334h-85z" />
    <glyph glyph-name="S" unicode="S" horiz-adv-x="1149" 
d="M588 -13c-244 0 -451 137 -493 388l136 34c28 -196 170 -299 359 -299c191 0 315 114 315 267c0 371 -726 250 -726 691c0 220 178 360 400 360c173 0 310 -69 400 -227l-114 -71c-65 118 -160 176 -291 176c-147 0 -258 -98 -258 -232c0 -336 726 -220 726 -686
c0 -242 -198 -401 -454 -401z" />
    <glyph glyph-name="Sacute" unicode="&#x15a;" horiz-adv-x="1149" 
d="M502 1540l218 286h142l-259 -286h-101zM588 -13c-244 0 -451 137 -493 388l136 34c28 -196 170 -299 359 -299c191 0 315 114 315 267c0 371 -726 250 -726 691c0 220 178 360 400 360c173 0 310 -69 400 -227l-114 -71c-65 118 -160 176 -291 176
c-147 0 -258 -98 -258 -232c0 -336 726 -220 726 -686c0 -242 -198 -401 -454 -401z" />
    <glyph glyph-name="Scaron" unicode="&#x160;" horiz-adv-x="1149" 
d="M566 1518l-301 308h111l190 -195l192 195h111zM588 -13c-244 0 -451 137 -493 388l136 34c28 -196 170 -299 359 -299c191 0 315 114 315 267c0 371 -726 250 -726 691c0 220 178 360 400 360c173 0 310 -69 400 -227l-114 -71c-65 118 -160 176 -291 176
c-147 0 -258 -98 -258 -232c0 -336 726 -220 726 -686c0 -242 -198 -401 -454 -401z" />
    <glyph glyph-name="Scedilla" unicode="&#x15e;" horiz-adv-x="1149" 
d="M1042 388c0 -238 -191 -395 -440 -401l-75 -120c24 -1 45 -4 64 -8c114 -23 175 -85 175 -178c0 -117 -83 -197 -208 -197c-83 0 -162 53 -193 129l78 33c17 -48 65 -82 118 -82c77 0 123 42 123 112c0 74 -67 123 -182 131c-25 2 -53 3 -87 3l106 181
c-214 22 -388 156 -426 384l136 34c28 -196 170 -299 359 -299c191 0 315 114 315 267c0 371 -726 250 -726 691c0 220 178 360 400 360c173 0 310 -69 400 -227l-114 -71c-65 118 -160 176 -291 176c-147 0 -258 -98 -258 -232c0 -336 726 -220 726 -686z" />
    <glyph glyph-name="uni0218" unicode="&#x218;" horiz-adv-x="1149" 
d="M588 -13c-244 0 -451 137 -493 388l136 34c28 -196 170 -299 359 -299c191 0 315 114 315 267c0 371 -726 250 -726 691c0 220 178 360 400 360c173 0 310 -69 400 -227l-114 -71c-65 118 -160 176 -291 176c-147 0 -258 -98 -258 -232c0 -336 726 -220 726 -686
c0 -242 -198 -401 -454 -401zM325 -447l182 334h141l-238 -334h-85z" />
    <glyph glyph-name="T" unicode="T" horiz-adv-x="1252" 
d="M558 0v1289h-493v124h1123v-124h-493v-1289h-137z" />
    <glyph glyph-name="Tbar" unicode="&#x166;" horiz-adv-x="1252" 
d="M1188 1289h-493v-536h252v-92h-252v-661h-137v661h-246v92h246v536h-493v124h1123v-124z" />
    <glyph glyph-name="Tcaron" unicode="&#x164;" horiz-adv-x="1252" 
d="M628 1518l-301 308h111l190 -195l192 195h111zM558 0v1289h-493v124h1123v-124h-493v-1289h-137z" />
    <glyph glyph-name="uni0162" unicode="&#x162;" horiz-adv-x="1252" 
d="M558 0v1289h-493v124h1123v-124h-493v-1289h-137zM620 -516c-83 0 -162 53 -193 129l78 33c17 -48 65 -82 118 -82c77 0 123 42 123 112c0 74 -67 123 -182 131c-25 2 -53 3 -87 3l111 189h83l-82 -132c24 -1 45 -4 64 -8c114 -23 175 -85 175 -178
c0 -117 -83 -197 -208 -197z" />
    <glyph glyph-name="uni021A" unicode="&#x21a;" horiz-adv-x="1252" 
d="M558 0v1289h-493v124h1123v-124h-493v-1289h-137zM387 -447l182 334h141l-238 -334h-85z" />
    <glyph glyph-name="U" unicode="U" horiz-adv-x="1401" 
d="M699 -15c-340 0 -504 205 -504 545v883h137v-868c0 -275 109 -427 367 -427c260 0 370 154 370 432v863h137v-872c0 -348 -166 -556 -507 -556z" />
    <glyph glyph-name="Uacute" unicode="&#xda;" horiz-adv-x="1401" 
d="M635 1540l218 286h142l-259 -286h-101zM699 -15c-340 0 -504 205 -504 545v883h137v-868c0 -275 109 -427 367 -427c260 0 370 154 370 432v863h137v-872c0 -348 -166 -556 -507 -556z" />
    <glyph glyph-name="uni01D3" unicode="&#x1d3;" horiz-adv-x="1401" 
d="M699 1518l-301 308h111l190 -195l192 195h111zM699 -15c-340 0 -504 205 -504 545v883h137v-868c0 -275 109 -427 367 -427c260 0 370 154 370 432v863h137v-872c0 -348 -166 -556 -507 -556z" />
    <glyph glyph-name="Ucircumflex" unicode="&#xdb;" horiz-adv-x="1401" 
d="M398 1526l301 319l302 -319h-110l-192 201l-190 -201h-111zM699 -15c-340 0 -504 205 -504 545v883h137v-868c0 -275 109 -427 367 -427c260 0 370 154 370 432v863h137v-872c0 -348 -166 -556 -507 -556z" />
    <glyph glyph-name="Udieresis" unicode="&#xdc;" horiz-adv-x="1401" 
d="M460 1621v205h113v-205h-113zM824 1621v205h112v-205h-112zM699 -15c-340 0 -504 205 -504 545v883h137v-868c0 -275 109 -427 367 -427c260 0 370 154 370 432v863h137v-872c0 -348 -166 -556 -507 -556z" />
    <glyph glyph-name="uni01D7" unicode="&#x1d7;" horiz-adv-x="1401" 
d="M635 1954l218 286h142l-259 -286h-101zM460 1621v205h113v-205h-113zM824 1621v205h112v-205h-112zM699 -15c-340 0 -504 205 -504 545v883h137v-868c0 -275 109 -427 367 -427c260 0 370 154 370 432v863h137v-872c0 -348 -166 -556 -507 -556z" />
    <glyph glyph-name="uni01D9" unicode="&#x1d9;" horiz-adv-x="1401" 
d="M699 1932l-301 308h111l190 -195l192 195h111zM460 1621v205h113v-205h-113zM824 1621v205h112v-205h-112zM699 -15c-340 0 -504 205 -504 545v883h137v-868c0 -275 109 -427 367 -427c260 0 370 154 370 432v863h137v-872c0 -348 -166 -556 -507 -556z" />
    <glyph glyph-name="uni01DB" unicode="&#x1db;" horiz-adv-x="1401" 
d="M649 1954l-259 286h142l218 -286h-101zM460 1621v205h113v-205h-113zM824 1621v205h112v-205h-112zM699 -15c-340 0 -504 205 -504 545v883h137v-868c0 -275 109 -427 367 -427c260 0 370 154 370 432v863h137v-872c0 -348 -166 -556 -507 -556z" />
    <glyph glyph-name="uni01D5" unicode="&#x1d5;" horiz-adv-x="1401" 
d="M427 2047v82h548v-82h-548zM460 1621v205h113v-205h-113zM824 1621v205h112v-205h-112zM699 -15c-340 0 -504 205 -504 545v883h137v-868c0 -275 109 -427 367 -427c260 0 370 154 370 432v863h137v-872c0 -348 -166 -556 -507 -556z" />
    <glyph glyph-name="Ugrave" unicode="&#xd9;" horiz-adv-x="1401" 
d="M649 1540l-259 286h142l218 -286h-101zM699 -15c-340 0 -504 205 -504 545v883h137v-868c0 -275 109 -427 367 -427c260 0 370 154 370 432v863h137v-872c0 -348 -166 -556 -507 -556z" />
    <glyph glyph-name="Uhungarumlaut" unicode="&#x170;" horiz-adv-x="1401" 
d="M460 1520l218 306h122l-239 -306h-101zM802 1520l218 306h142l-259 -306h-101zM699 -15c-340 0 -504 205 -504 545v883h137v-868c0 -275 109 -427 367 -427c260 0 370 154 370 432v863h137v-872c0 -348 -166 -556 -507 -556z" />
    <glyph glyph-name="Umacron" unicode="&#x16a;" horiz-adv-x="1401" 
d="M427 1633v82h548v-82h-548zM699 -15c-340 0 -504 205 -504 545v883h137v-868c0 -275 109 -427 367 -427c260 0 370 154 370 432v863h137v-872c0 -348 -166 -556 -507 -556z" />
    <glyph glyph-name="Uogonek" unicode="&#x172;" horiz-adv-x="1401" 
d="M1069 1413h137v-872c0 -288 -114 -481 -347 -538c-85 -45 -165 -120 -165 -214c0 -85 48 -121 122 -121c64 0 109 27 148 82l70 -48c-52 -76 -118 -119 -215 -119c-125 0 -208 73 -208 190c0 91 55 165 117 213c-9 -1 -19 -1 -29 -1c-340 0 -504 205 -504 545v883h137
v-868c0 -275 109 -427 367 -427c260 0 370 154 370 432v863z" />
    <glyph glyph-name="Uring" unicode="&#x16e;" horiz-adv-x="1401" 
d="M697 1508c-108 0 -193 88 -193 194c0 108 86 194 193 194c106 0 195 -86 195 -194s-86 -194 -195 -194zM697 1583c68 0 119 53 119 120c0 66 -49 117 -119 117c-67 0 -117 -51 -117 -117c0 -68 51 -120 117 -120zM699 -15c-340 0 -504 205 -504 545v883h137v-868
c0 -275 109 -427 367 -427c260 0 370 154 370 432v863h137v-872c0 -348 -166 -556 -507 -556z" />
    <glyph glyph-name="Utilde" unicode="&#x168;" horiz-adv-x="1401" 
d="M840 1560c-167 0 -168 179 -279 178c-63 1 -102 -59 -102 -160h-80c0 155 72 246 187 245c154 1 162 -177 275 -177c55 0 95 65 95 169h83c0 -158 -71 -255 -179 -255zM699 -15c-340 0 -504 205 -504 545v883h137v-868c0 -275 109 -427 367 -427c260 0 370 154 370 432
v863h137v-872c0 -348 -166 -556 -507 -556z" />
    <glyph glyph-name="V" unicode="V" horiz-adv-x="1363" 
d="M1146 1413h150l-558 -1413h-111l-560 1413h151l465 -1204z" />
    <glyph glyph-name="W" unicode="W" horiz-adv-x="1979" 
d="M486 0l-407 1413h143l343 -1217l369 1141h112l368 -1141l343 1217h144l-408 -1413h-139l-364 1121l-364 -1121h-140z" />
    <glyph glyph-name="Wacute" unicode="&#x1e82;" horiz-adv-x="1979" 
d="M929 1525l218 286h142l-259 -286h-101zM486 0l-407 1413h143l343 -1217l369 1141h112l368 -1141l343 1217h144l-408 -1413h-139l-364 1121l-364 -1121h-140z" />
    <glyph glyph-name="Wcircumflex" unicode="&#x174;" horiz-adv-x="1979" 
d="M692 1511l301 319l302 -319h-110l-192 201l-190 -201h-111zM486 0l-407 1413h143l343 -1217l369 1141h112l368 -1141l343 1217h144l-408 -1413h-139l-364 1121l-364 -1121h-140z" />
    <glyph glyph-name="Wdieresis" unicode="&#x1e84;" horiz-adv-x="1979" 
d="M754 1606v205h113v-205h-113zM1118 1606v205h112v-205h-112zM486 0l-407 1413h143l343 -1217l369 1141h112l368 -1141l343 1217h144l-408 -1413h-139l-364 1121l-364 -1121h-140z" />
    <glyph glyph-name="Wgrave" unicode="&#x1e80;" horiz-adv-x="1979" 
d="M943 1525l-259 286h142l218 -286h-101zM486 0l-407 1413h143l343 -1217l369 1141h112l368 -1141l343 1217h144l-408 -1413h-139l-364 1121l-364 -1121h-140z" />
    <glyph glyph-name="X" unicode="X" horiz-adv-x="1325" 
d="M76 0l493 713l-484 700h164l414 -611l413 611h164l-484 -700l493 -713h-164l-423 618l-422 -618h-164z" />
    <glyph glyph-name="Y" unicode="Y" horiz-adv-x="1328" 
d="M593 0v540l-538 873h166l442 -739l443 739h167l-538 -873v-540h-142z" />
    <glyph glyph-name="Yacute" unicode="&#xdd;" horiz-adv-x="1328" 
d="M598 1541l218 286h142l-259 -286h-101zM593 0v540l-538 873h166l442 -739l443 739h167l-538 -873v-540h-142z" />
    <glyph glyph-name="Ycircumflex" unicode="&#x176;" horiz-adv-x="1328" 
d="M361 1527l301 319l302 -319h-110l-192 201l-190 -201h-111zM593 0v540l-538 873h166l442 -739l443 739h167l-538 -873v-540h-142z" />
    <glyph glyph-name="Ydieresis" unicode="&#x178;" horiz-adv-x="1328" 
d="M423 1622v205h113v-205h-113zM787 1622v205h112v-205h-112zM593 0v540l-538 873h166l442 -739l443 739h167l-538 -873v-540h-142z" />
    <glyph glyph-name="Ygrave" unicode="&#x1ef2;" horiz-adv-x="1328" 
d="M612 1541l-259 286h142l218 -286h-101zM593 0v540l-538 873h166l442 -739l443 739h167l-538 -873v-540h-142z" />
    <glyph glyph-name="uni1EF8" unicode="&#x1ef8;" horiz-adv-x="1328" 
d="M803 1561c-167 0 -168 179 -279 178c-63 1 -102 -59 -102 -160h-80c0 155 72 246 187 245c154 1 162 -177 275 -177c55 0 95 65 95 169h83c0 -158 -71 -255 -179 -255zM593 0v540l-538 873h166l442 -739l443 739h167l-538 -873v-540h-142z" />
    <glyph glyph-name="Z" unicode="Z" horiz-adv-x="1306" 
d="M1204 1413v-107l-927 -1181h924v-125h-1110v104l929 1182h-882v127h1066z" />
    <glyph glyph-name="Zacute" unicode="&#x179;" horiz-adv-x="1306" 
d="M947 1826l-259 -286h-101l218 286h142zM1204 1413v-107l-927 -1181h924v-125h-1110v104l929 1182h-882v127h1066z" />
    <glyph glyph-name="Zcaron" unicode="&#x17d;" horiz-adv-x="1306" 
d="M954 1826l-303 -308l-301 308h111l190 -195l192 195h111zM1204 1413v-107l-927 -1181h924v-125h-1110v104l929 1182h-882v127h1066z" />
    <glyph glyph-name="Zdotaccent" unicode="&#x17b;" horiz-adv-x="1306" 
d="M720 1826v-205h-138v205h138zM1204 1413v-107l-927 -1181h924v-125h-1110v104l929 1182h-882v127h1066z" />
    <glyph glyph-name="a" unicode="a" horiz-adv-x="1066" 
d="M516 1015c256 0 398 -154 398 -405v-610h-110l-9 203c-75 -145 -214 -218 -363 -218c-203 0 -345 113 -345 305c0 203 161 285 419 285h288v12c0 211 -77 311 -277 311c-133 0 -221 -60 -290 -163l-101 74c97 134 213 206 390 206zM457 98c174 0 291 113 337 277v102
h-281c-197 0 -291 -71 -291 -191c0 -114 85 -188 235 -188z" />
    <glyph glyph-name="aacute" unicode="&#xe1;" horiz-adv-x="1066" 
d="M811 1413l-259 -286h-101l218 286h142zM516 1015c256 0 398 -154 398 -405v-610h-110l-9 203c-75 -145 -214 -218 -363 -218c-203 0 -345 113 -345 305c0 203 161 285 419 285h288v12c0 211 -77 311 -277 311c-133 0 -221 -60 -290 -163l-101 74c97 134 213 206 390 206z
M457 98c174 0 291 113 337 277v102h-281c-197 0 -291 -71 -291 -191c0 -114 85 -188 235 -188z" />
    <glyph glyph-name="abreve" unicode="&#x103;" horiz-adv-x="1066" 
d="M516 1148c-205 0 -305 94 -305 265h96c0 -122 80 -183 209 -183c131 0 208 63 208 183h96c0 -175 -105 -265 -304 -265zM516 1015c256 0 398 -154 398 -405v-610h-110l-9 203c-75 -145 -214 -218 -363 -218c-203 0 -345 113 -345 305c0 203 161 285 419 285h288v12
c0 211 -77 311 -277 311c-133 0 -221 -60 -290 -163l-101 74c97 134 213 206 390 206zM457 98c174 0 291 113 337 277v102h-281c-197 0 -291 -71 -291 -191c0 -114 85 -188 235 -188z" />
    <glyph glyph-name="uni1EAF" unicode="&#x1eaf;" horiz-adv-x="1066" 
d="M811 1827l-259 -286h-101l218 286h142zM516 1148c-205 0 -305 94 -305 265h96c0 -122 80 -183 209 -183c131 0 208 63 208 183h96c0 -175 -105 -265 -304 -265zM516 1015c256 0 398 -154 398 -405v-610h-110l-9 203c-75 -145 -214 -218 -363 -218
c-203 0 -345 113 -345 305c0 203 161 285 419 285h288v12c0 211 -77 311 -277 311c-133 0 -221 -60 -290 -163l-101 74c97 134 213 206 390 206zM457 98c174 0 291 113 337 277v102h-281c-197 0 -291 -71 -291 -191c0 -114 85 -188 235 -188z" />
    <glyph glyph-name="uni1EB1" unicode="&#x1eb1;" horiz-adv-x="1066" 
d="M566 1541h-101l-259 286h142zM307 1413c0 -122 80 -183 209 -183c131 0 208 63 208 183h96c0 -175 -105 -265 -304 -265c-205 0 -305 94 -305 265h96zM516 1015c256 0 398 -154 398 -405v-610h-110l-9 203c-75 -145 -214 -218 -363 -218c-203 0 -345 113 -345 305
c0 203 161 285 419 285h288v12c0 211 -77 311 -277 311c-133 0 -221 -60 -290 -163l-101 74c97 134 213 206 390 206zM457 98c174 0 291 113 337 277v102h-281c-197 0 -291 -71 -291 -191c0 -114 85 -188 235 -188z" />
    <glyph glyph-name="uni1EB5" unicode="&#x1eb5;" horiz-adv-x="1066" 
d="M377 1739c-63 1 -102 -59 -102 -160h-80c0 155 72 246 187 245c154 1 162 -177 275 -177c55 0 95 65 95 169h83c0 -158 -71 -255 -179 -255c-167 0 -168 179 -279 178zM516 1230c131 0 208 63 208 183h96c0 -175 -105 -265 -304 -265c-205 0 -305 94 -305 265h96
c0 -122 80 -183 209 -183zM516 1015c256 0 398 -154 398 -405v-610h-110l-9 203c-75 -145 -214 -218 -363 -218c-203 0 -345 113 -345 305c0 203 161 285 419 285h288v12c0 211 -77 311 -277 311c-133 0 -221 -60 -290 -163l-101 74c97 134 213 206 390 206zM457 98
c174 0 291 113 337 277v102h-281c-197 0 -291 -71 -291 -191c0 -114 85 -188 235 -188z" />
    <glyph glyph-name="uni01CE" unicode="&#x1ce;" horiz-adv-x="1066" 
d="M818 1413l-303 -308l-301 308h111l190 -195l192 195h111zM516 1015c256 0 398 -154 398 -405v-610h-110l-9 203c-75 -145 -214 -218 -363 -218c-203 0 -345 113 -345 305c0 203 161 285 419 285h288v12c0 211 -77 311 -277 311c-133 0 -221 -60 -290 -163l-101 74
c97 134 213 206 390 206zM457 98c174 0 291 113 337 277v102h-281c-197 0 -291 -71 -291 -191c0 -114 85 -188 235 -188z" />
    <glyph glyph-name="acircumflex" unicode="&#xe2;" horiz-adv-x="1066" 
d="M515 1314l-190 -201h-111l301 319l302 -319h-110zM516 1015c256 0 398 -154 398 -405v-610h-110l-9 203c-75 -145 -214 -218 -363 -218c-203 0 -345 113 -345 305c0 203 161 285 419 285h288v12c0 211 -77 311 -277 311c-133 0 -221 -60 -290 -163l-101 74
c97 134 213 206 390 206zM457 98c174 0 291 113 337 277v102h-281c-197 0 -291 -71 -291 -191c0 -114 85 -188 235 -188z" />
    <glyph glyph-name="uni1EA5" unicode="&#x1ea5;" horiz-adv-x="1066" 
d="M811 1826l-259 -286h-101l218 286h142zM515 1314l-190 -201h-111l301 319l302 -319h-110zM516 1015c256 0 398 -154 398 -405v-610h-110l-9 203c-75 -145 -214 -218 -363 -218c-203 0 -345 113 -345 305c0 203 161 285 419 285h288v12c0 211 -77 311 -277 311
c-133 0 -221 -60 -290 -163l-101 74c97 134 213 206 390 206zM457 98c174 0 291 113 337 277v102h-281c-197 0 -291 -71 -291 -191c0 -114 85 -188 235 -188z" />
    <glyph glyph-name="uni1EA7" unicode="&#x1ea7;" horiz-adv-x="1066" 
d="M566 1540h-101l-259 286h142zM214 1113l301 319l302 -319h-110l-192 201l-190 -201h-111zM516 1015c256 0 398 -154 398 -405v-610h-110l-9 203c-75 -145 -214 -218 -363 -218c-203 0 -345 113 -345 305c0 203 161 285 419 285h288v12c0 211 -77 311 -277 311
c-133 0 -221 -60 -290 -163l-101 74c97 134 213 206 390 206zM457 98c174 0 291 113 337 277v102h-281c-197 0 -291 -71 -291 -191c0 -114 85 -188 235 -188z" />
    <glyph glyph-name="uni1EAB" unicode="&#x1eab;" horiz-adv-x="1066" 
d="M377 1738c-63 1 -102 -59 -102 -160h-80c0 155 72 246 187 245c154 1 162 -177 275 -177c55 0 95 65 95 169h83c0 -158 -71 -255 -179 -255c-167 0 -168 179 -279 178zM214 1113l301 319l302 -319h-110l-192 201l-190 -201h-111zM516 1015c256 0 398 -154 398 -405v-610
h-110l-9 203c-75 -145 -214 -218 -363 -218c-203 0 -345 113 -345 305c0 203 161 285 419 285h288v12c0 211 -77 311 -277 311c-133 0 -221 -60 -290 -163l-101 74c97 134 213 206 390 206zM457 98c174 0 291 113 337 277v102h-281c-197 0 -291 -71 -291 -191
c0 -114 85 -188 235 -188z" />
    <glyph glyph-name="adieresis" unicode="&#xe4;" horiz-adv-x="1066" 
d="M389 1413v-205h-113v205h113zM752 1413v-205h-112v205h112zM516 1015c256 0 398 -154 398 -405v-610h-110l-9 203c-75 -145 -214 -218 -363 -218c-203 0 -345 113 -345 305c0 203 161 285 419 285h288v12c0 211 -77 311 -277 311c-133 0 -221 -60 -290 -163l-101 74
c97 134 213 206 390 206zM457 98c174 0 291 113 337 277v102h-281c-197 0 -291 -71 -291 -191c0 -114 85 -188 235 -188z" />
    <glyph glyph-name="agrave" unicode="&#xe0;" horiz-adv-x="1066" 
d="M566 1127h-101l-259 286h142zM516 1015c256 0 398 -154 398 -405v-610h-110l-9 203c-75 -145 -214 -218 -363 -218c-203 0 -345 113 -345 305c0 203 161 285 419 285h288v12c0 211 -77 311 -277 311c-133 0 -221 -60 -290 -163l-101 74c97 134 213 206 390 206zM457 98
c174 0 291 113 337 277v102h-281c-197 0 -291 -71 -291 -191c0 -114 85 -188 235 -188z" />
    <glyph glyph-name="amacron" unicode="&#x101;" horiz-adv-x="1066" 
d="M791 1302v-82h-548v82h548zM516 1015c256 0 398 -154 398 -405v-610h-110l-9 203c-75 -145 -214 -218 -363 -218c-203 0 -345 113 -345 305c0 203 161 285 419 285h288v12c0 211 -77 311 -277 311c-133 0 -221 -60 -290 -163l-101 74c97 134 213 206 390 206zM457 98
c174 0 291 113 337 277v102h-281c-197 0 -291 -71 -291 -191c0 -114 85 -188 235 -188z" />
    <glyph glyph-name="aogonek" unicode="&#x105;" horiz-adv-x="1066" 
d="M929 -289l70 -48c-52 -76 -118 -119 -215 -119c-125 0 -208 73 -208 190c0 146 140 247 228 269l-9 200c-75 -145 -214 -218 -363 -218c-203 0 -345 113 -345 305c0 203 161 285 419 285h288v12c0 211 -77 311 -277 311c-133 0 -221 -60 -290 -163l-101 74
c97 134 213 206 390 206c256 0 398 -154 398 -405v-610c-109 -30 -255 -123 -255 -250c0 -85 48 -121 122 -121c64 0 109 27 148 82zM457 98c174 0 291 113 337 277v102h-281c-197 0 -291 -71 -291 -191c0 -114 85 -188 235 -188z" />
    <glyph glyph-name="aring" unicode="&#xe5;" horiz-adv-x="1066" 
d="M513 1095c-108 0 -193 88 -193 194c0 108 86 194 193 194c106 0 195 -86 195 -194s-86 -194 -195 -194zM513 1407c-67 0 -117 -51 -117 -117c0 -68 51 -120 117 -120c68 0 119 53 119 120c0 66 -49 117 -119 117zM516 1015c256 0 398 -154 398 -405v-610h-110l-9 203
c-75 -145 -214 -218 -363 -218c-203 0 -345 113 -345 305c0 203 161 285 419 285h288v12c0 211 -77 311 -277 311c-133 0 -221 -60 -290 -163l-101 74c97 134 213 206 390 206zM457 98c174 0 291 113 337 277v102h-281c-197 0 -291 -71 -291 -191c0 -114 85 -188 235 -188z
" />
    <glyph glyph-name="atilde" unicode="&#xe3;" horiz-adv-x="1066" 
d="M377 1325c-63 1 -102 -59 -102 -160h-80c0 155 72 246 187 245c154 1 162 -177 275 -177c55 0 95 65 95 169h83c0 -158 -71 -255 -179 -255c-167 0 -168 179 -279 178zM516 1015c256 0 398 -154 398 -405v-610h-110l-9 203c-75 -145 -214 -218 -363 -218
c-203 0 -345 113 -345 305c0 203 161 285 419 285h288v12c0 211 -77 311 -277 311c-133 0 -221 -60 -290 -163l-101 74c97 134 213 206 390 206zM457 98c174 0 291 113 337 277v102h-281c-197 0 -291 -71 -291 -191c0 -114 85 -188 235 -188z" />
    <glyph glyph-name="uni0250" unicode="&#x250;" horiz-adv-x="1066" 
d="M549 101c133 0 221 60 290 163l101 -74c-97 -134 -213 -206 -390 -206c-256 0 -398 154 -398 405v610h110l9 -203c75 145 214 218 363 218c203 0 345 -113 345 -305c0 -203 -161 -285 -419 -285h-288v-12c0 -211 77 -311 277 -311zM609 901c-174 0 -291 -113 -337 -277
v-102h281c197 0 291 71 291 191c0 114 -85 188 -235 188z" />
    <glyph glyph-name="ae" unicode="&#xe6;" horiz-adv-x="1740" 
d="M423 -15c-195 0 -341 114 -341 298c0 206 162 279 420 279h286c0 28 -2 52 -5 76c-11 177 -101 261 -275 261c-128 0 -220 -57 -290 -156l-94 69c99 137 216 201 388 201c188 0 310 -92 351 -260c63 156 186 258 357 258c322 0 427 -253 427 -468c0 -29 -7 -71 -9 -79
h-724c7 -219 116 -356 312 -356c128 0 207 32 297 124l93 -81c-118 -119 -230 -162 -389 -162c-188 0 -320 92 -381 241c-87 -149 -211 -245 -423 -245zM913 562h601c2 23 0 46 -3 67c-12 129 -98 269 -302 269c-179 0 -289 -146 -296 -336zM442 85c169 0 281 84 363 241
c-10 43 -15 90 -17 138h-279c-199 0 -302 -56 -302 -180c0 -120 91 -199 235 -199z" />
    <glyph glyph-name="b" unicode="b" horiz-adv-x="1199" 
d="M676 -15c-158 0 -296 89 -359 236v-221h-136v1413h136v-634c63 147 198 236 357 236c270 0 425 -231 425 -514c0 -284 -155 -516 -423 -516zM645 108c209 0 321 171 321 393c0 221 -112 393 -321 393c-208 0 -339 -170 -339 -393c0 -225 131 -393 339 -393z" />
    <glyph glyph-name="c" unicode="c" horiz-adv-x="1016" 
d="M547 -15c-287 0 -450 230 -450 513c0 262 148 517 448 517c182 0 328 -95 402 -275l-126 -49c-47 125 -148 203 -276 203c-215 0 -314 -193 -314 -396c0 -206 99 -393 315 -393c130 0 230 77 270 201l121 -46c-61 -174 -206 -275 -390 -275z" />
    <glyph glyph-name="cacute" unicode="&#x107;" horiz-adv-x="1016" 
d="M481 1127l218 286h142l-259 -286h-101zM547 -15c-287 0 -450 230 -450 513c0 262 148 517 448 517c182 0 328 -95 402 -275l-126 -49c-47 125 -148 203 -276 203c-215 0 -314 -193 -314 -396c0 -206 99 -393 315 -393c130 0 230 77 270 201l121 -46
c-61 -174 -206 -275 -390 -275z" />
    <glyph glyph-name="ccaron" unicode="&#x10d;" horiz-adv-x="1016" 
d="M545 1105l-301 308h111l190 -195l192 195h111zM547 -15c-287 0 -450 230 -450 513c0 262 148 517 448 517c182 0 328 -95 402 -275l-126 -49c-47 125 -148 203 -276 203c-215 0 -314 -193 -314 -396c0 -206 99 -393 315 -393c130 0 230 77 270 201l121 -46
c-61 -174 -206 -275 -390 -275z" />
    <glyph glyph-name="ccedilla" unicode="&#xe7;" horiz-adv-x="1016" 
d="M546 105c130 0 230 77 270 201l121 -46c-57 -163 -189 -262 -357 -274l-74 -119c24 -1 45 -4 64 -8c114 -23 175 -85 175 -178c0 -117 -83 -197 -208 -197c-83 0 -162 53 -193 129l78 33c17 -48 65 -82 118 -82c77 0 123 42 123 112c0 74 -67 123 -182 131
c-25 2 -53 3 -87 3l104 177c-256 25 -401 244 -401 511c0 262 148 517 448 517c182 0 328 -95 402 -275l-126 -49c-47 125 -148 203 -276 203c-215 0 -314 -193 -314 -396c0 -206 99 -393 315 -393z" />
    <glyph glyph-name="cdotaccent" unicode="&#x10b;" horiz-adv-x="1016" 
d="M476 1208v205h138v-205h-138zM547 -15c-287 0 -450 230 -450 513c0 262 148 517 448 517c182 0 328 -95 402 -275l-126 -49c-47 125 -148 203 -276 203c-215 0 -314 -193 -314 -396c0 -206 99 -393 315 -393c130 0 230 77 270 201l121 -46c-61 -174 -206 -275 -390 -275z
" />
    <glyph glyph-name="d" unicode="d" horiz-adv-x="1214" 
d="M543 -15c-271 0 -446 231 -446 516c0 282 175 514 444 514c157 0 296 -89 358 -236v634h134v-1413h-124l-5 227c-62 -151 -201 -242 -361 -242zM572 105c208 0 337 170 337 396c0 223 -129 393 -337 393s-341 -172 -341 -393c0 -223 133 -396 341 -396z" />
    <glyph glyph-name="eth" unicode="&#xf0;" horiz-adv-x="1151" 
d="M562 -15c-271 0 -479 216 -479 470c0 258 217 457 478 457c63 0 121 -22 165 -58l-180 303l-112 -127h-79l158 179l-127 204h145l68 -109l94 109h79l-137 -156l335 -566c45 -74 70 -150 70 -240c0 -258 -214 -466 -478 -466zM561 114c191 0 345 151 345 340
c0 186 -155 339 -345 339c-188 0 -344 -153 -344 -339c0 -188 156 -340 344 -340z" />
    <glyph glyph-name="dcaron" unicode="&#x10f;" horiz-adv-x="1214" 
d="M543 -15c-271 0 -446 231 -446 516c0 282 175 514 444 514c157 0 296 -89 358 -236v634h134v-1413h-124l-5 227c-62 -151 -201 -242 -361 -242zM1164 993l118 420h139l-174 -420h-83zM572 105c208 0 337 170 337 396c0 223 -129 393 -337 393s-341 -172 -341 -393
c0 -223 133 -396 341 -396z" />
    <glyph glyph-name="dcroat" unicode="&#x111;" horiz-adv-x="1214" 
d="M1170 1265v-92h-137v-1173h-124l-5 227c-62 -151 -201 -242 -361 -242c-271 0 -446 231 -446 516c0 282 175 514 444 514c157 0 296 -89 358 -236v394h-364v92h364v148h134v-148h137zM572 105c208 0 337 170 337 396c0 223 -129 393 -337 393s-341 -172 -341 -393
c0 -223 133 -396 341 -396z" />
    <glyph glyph-name="uni01F3" unicode="&#x1f3;" horiz-adv-x="2193" 
d="M899 779v634h134v-1413h-124l-5 227c-62 -151 -201 -242 -361 -242c-271 0 -446 231 -446 516c0 282 175 514 444 514c157 0 296 -89 358 -236zM2113 999v-106l-655 -780h650v-113h-826v97l669 790h-636v112h798zM572 105c208 0 337 170 337 396c0 223 -129 393 -337 393
s-341 -172 -341 -393c0 -223 133 -396 341 -396z" />
    <glyph glyph-name="uni01C6" unicode="&#x1c6;" horiz-adv-x="2193" 
d="M899 779v634h134v-1413h-124l-5 227c-62 -151 -201 -242 -361 -242c-271 0 -446 231 -446 516c0 282 175 514 444 514c157 0 296 -89 358 -236zM1998 1413l-303 -308l-301 308h111l190 -195l192 195h111zM2113 999v-106l-655 -780h650v-113h-826v97l669 790h-636v112h798
zM572 105c208 0 337 170 337 396c0 223 -129 393 -337 393s-341 -172 -341 -393c0 -223 133 -396 341 -396z" />
    <glyph glyph-name="e" unicode="e" horiz-adv-x="1074" 
d="M564 -15c-301 0 -466 223 -466 510c0 282 159 520 450 520c326 0 433 -264 433 -462c0 -34 -3 -74 -7 -89h-736c10 -223 126 -359 327 -359c120 0 203 33 293 127l92 -81c-112 -117 -225 -166 -386 -166zM238 562h611c1 21 1 43 -2 63c-12 135 -102 277 -300 277
c-182 0 -292 -140 -309 -340z" />
    <glyph glyph-name="eacute" unicode="&#xe9;" horiz-adv-x="1074" 
d="M470 1127l218 286h142l-259 -286h-101zM564 -15c-301 0 -466 223 -466 510c0 282 159 520 450 520c326 0 433 -264 433 -462c0 -34 -3 -74 -7 -89h-736c10 -223 126 -359 327 -359c120 0 203 33 293 127l92 -81c-112 -117 -225 -166 -386 -166zM238 562h611
c1 21 1 43 -2 63c-12 135 -102 277 -300 277c-182 0 -292 -140 -309 -340z" />
    <glyph glyph-name="ecaron" unicode="&#x11b;" horiz-adv-x="1074" 
d="M534 1105l-301 308h111l190 -195l192 195h111zM564 -15c-301 0 -466 223 -466 510c0 282 159 520 450 520c326 0 433 -264 433 -462c0 -34 -3 -74 -7 -89h-736c10 -223 126 -359 327 -359c120 0 203 33 293 127l92 -81c-112 -117 -225 -166 -386 -166zM238 562h611
c1 21 1 43 -2 63c-12 135 -102 277 -300 277c-182 0 -292 -140 -309 -340z" />
    <glyph glyph-name="ecircumflex" unicode="&#xea;" horiz-adv-x="1074" 
d="M233 1113l301 319l302 -319h-110l-192 201l-190 -201h-111zM564 -15c-301 0 -466 223 -466 510c0 282 159 520 450 520c326 0 433 -264 433 -462c0 -34 -3 -74 -7 -89h-736c10 -223 126 -359 327 -359c120 0 203 33 293 127l92 -81c-112 -117 -225 -166 -386 -166z
M238 562h611c1 21 1 43 -2 63c-12 135 -102 277 -300 277c-182 0 -292 -140 -309 -340z" />
    <glyph glyph-name="uni1EBF" unicode="&#x1ebf;" horiz-adv-x="1074" 
d="M470 1540l218 286h142l-259 -286h-101zM233 1113l301 319l302 -319h-110l-192 201l-190 -201h-111zM564 -15c-301 0 -466 223 -466 510c0 282 159 520 450 520c326 0 433 -264 433 -462c0 -34 -3 -74 -7 -89h-736c10 -223 126 -359 327 -359c120 0 203 33 293 127l92 -81
c-112 -117 -225 -166 -386 -166zM238 562h611c1 21 1 43 -2 63c-12 135 -102 277 -300 277c-182 0 -292 -140 -309 -340z" />
    <glyph glyph-name="uni1EC1" unicode="&#x1ec1;" horiz-adv-x="1074" 
d="M484 1540l-259 286h142l218 -286h-101zM233 1113l301 319l302 -319h-110l-192 201l-190 -201h-111zM564 -15c-301 0 -466 223 -466 510c0 282 159 520 450 520c326 0 433 -264 433 -462c0 -34 -3 -74 -7 -89h-736c10 -223 126 -359 327 -359c120 0 203 33 293 127l92 -81
c-112 -117 -225 -166 -386 -166zM238 562h611c1 21 1 43 -2 63c-12 135 -102 277 -300 277c-182 0 -292 -140 -309 -340z" />
    <glyph glyph-name="uni1EC5" unicode="&#x1ec5;" horiz-adv-x="1074" 
d="M675 1560c-167 0 -168 179 -279 178c-63 1 -102 -59 -102 -160h-80c0 155 72 246 187 245c154 1 162 -177 275 -177c55 0 95 65 95 169h83c0 -158 -71 -255 -179 -255zM233 1113l301 319l302 -319h-110l-192 201l-190 -201h-111zM564 -15c-301 0 -466 223 -466 510
c0 282 159 520 450 520c326 0 433 -264 433 -462c0 -34 -3 -74 -7 -89h-736c10 -223 126 -359 327 -359c120 0 203 33 293 127l92 -81c-112 -117 -225 -166 -386 -166zM238 562h611c1 21 1 43 -2 63c-12 135 -102 277 -300 277c-182 0 -292 -140 -309 -340z" />
    <glyph glyph-name="edieresis" unicode="&#xeb;" horiz-adv-x="1074" 
d="M295 1208v205h113v-205h-113zM659 1208v205h112v-205h-112zM564 -15c-301 0 -466 223 -466 510c0 282 159 520 450 520c326 0 433 -264 433 -462c0 -34 -3 -74 -7 -89h-736c10 -223 126 -359 327 -359c120 0 203 33 293 127l92 -81c-112 -117 -225 -166 -386 -166z
M238 562h611c1 21 1 43 -2 63c-12 135 -102 277 -300 277c-182 0 -292 -140 -309 -340z" />
    <glyph glyph-name="edotaccent" unicode="&#x117;" horiz-adv-x="1074" 
d="M465 1208v205h138v-205h-138zM564 -15c-301 0 -466 223 -466 510c0 282 159 520 450 520c326 0 433 -264 433 -462c0 -34 -3 -74 -7 -89h-736c10 -223 126 -359 327 -359c120 0 203 33 293 127l92 -81c-112 -117 -225 -166 -386 -166zM238 562h611c1 21 1 43 -2 63
c-12 135 -102 277 -300 277c-182 0 -292 -140 -309 -340z" />
    <glyph glyph-name="egrave" unicode="&#xe8;" horiz-adv-x="1074" 
d="M484 1127l-259 286h142l218 -286h-101zM564 -15c-301 0 -466 223 -466 510c0 282 159 520 450 520c326 0 433 -264 433 -462c0 -34 -3 -74 -7 -89h-736c10 -223 126 -359 327 -359c120 0 203 33 293 127l92 -81c-112 -117 -225 -166 -386 -166zM238 562h611
c1 21 1 43 -2 63c-12 135 -102 277 -300 277c-182 0 -292 -140 -309 -340z" />
    <glyph glyph-name="emacron" unicode="&#x113;" horiz-adv-x="1074" 
d="M262 1220v82h548v-82h-548zM564 -15c-301 0 -466 223 -466 510c0 282 159 520 450 520c326 0 433 -264 433 -462c0 -34 -3 -74 -7 -89h-736c10 -223 126 -359 327 -359c120 0 203 33 293 127l92 -81c-112 -117 -225 -166 -386 -166zM238 562h611c1 21 1 43 -2 63
c-12 135 -102 277 -300 277c-182 0 -292 -140 -309 -340z" />
    <glyph glyph-name="eogonek" unicode="&#x119;" horiz-adv-x="1074" 
d="M981 553c0 -34 -3 -74 -7 -89h-736c10 -223 126 -359 327 -359c120 0 203 33 293 127l92 -81c-74 -78 -149 -125 -238 -149c-80 -45 -151 -117 -151 -206c0 -85 48 -121 122 -121c64 0 109 27 148 82l70 -48c-52 -76 -118 -119 -215 -119c-125 0 -208 73 -208 190
c0 87 50 157 108 205h-22c-301 0 -466 223 -466 510c0 282 159 520 450 520c326 0 433 -264 433 -462zM849 562c1 21 1 43 -2 63c-12 135 -102 277 -300 277c-182 0 -292 -140 -309 -340h611z" />
    <glyph glyph-name="uni0258" unicode="&#x258;" horiz-adv-x="1074" 
d="M510 -15c-161 0 -274 49 -386 166l92 81c90 -94 173 -127 293 -127c201 0 317 136 327 359h-736c-4 15 -7 55 -7 89c0 198 107 462 433 462c291 0 450 -238 450 -520c0 -287 -165 -510 -466 -510zM836 562c-17 200 -127 340 -309 340c-198 0 -288 -142 -300 -277
c-3 -20 -3 -42 -2 -63h611z" />
    <glyph glyph-name="uni1EBD" unicode="&#x1ebd;" horiz-adv-x="1074" 
d="M675 1147c-167 0 -168 179 -279 178c-63 1 -102 -59 -102 -160h-80c0 155 72 246 187 245c154 1 162 -177 275 -177c55 0 95 65 95 169h83c0 -158 -71 -255 -179 -255zM564 -15c-301 0 -466 223 -466 510c0 282 159 520 450 520c326 0 433 -264 433 -462
c0 -34 -3 -74 -7 -89h-736c10 -223 126 -359 327 -359c120 0 203 33 293 127l92 -81c-112 -117 -225 -166 -386 -166zM238 562h611c1 21 1 43 -2 63c-12 135 -102 277 -300 277c-182 0 -292 -140 -309 -340z" />
    <glyph glyph-name="uni01DD" unicode="&#x1dd;" horiz-adv-x="1074" 
d="M510 1014c301 0 466 -223 466 -510c0 -282 -159 -520 -450 -520c-326 0 -433 264 -433 462c0 34 3 74 7 89h736c-10 223 -126 359 -327 359c-120 0 -203 -33 -293 -127l-92 81c112 117 225 166 386 166zM836 437h-611c-1 -21 -1 -43 2 -63c12 -135 102 -277 300 -277
c182 0 292 140 309 340z" />
    <glyph glyph-name="uni0259" unicode="&#x259;" horiz-adv-x="1074" 
d="M510 1014c301 0 466 -223 466 -510c0 -282 -159 -520 -450 -520c-326 0 -433 264 -433 462c0 34 3 74 7 89h736c-10 223 -126 359 -327 359c-120 0 -203 -33 -293 -127l-92 81c112 117 225 166 386 166zM836 437h-611c-1 -21 -1 -43 2 -63c12 -135 102 -277 300 -277
c182 0 292 140 309 340z" />
    <glyph glyph-name="f" unicode="f" horiz-adv-x="707" 
d="M248 0v887h-208v112h209v155c0 180 117 274 283 274c53 0 103 -14 149 -37l-44 -109c-32 17 -63 28 -93 28c-102 0 -160 -53 -160 -168v-143h293v-112h-293v-887h-136z" />
    <glyph glyph-name="g" unicode="g" horiz-adv-x="1055" 
d="M665 132c187 0 317 -90 317 -272c0 -192 -148 -317 -422 -317c-278 0 -476 117 -476 331c0 24 3 46 9 67l157 108c-71 33 -130 97 -132 200c-2 76 31 146 110 204c-49 58 -77 133 -77 218c0 202 159 344 373 344c104 0 191 -33 255 -89l153 135l68 -86l-152 -132
c30 -51 46 -112 46 -177c0 -204 -160 -338 -371 -338c-82 0 -156 20 -215 57c-51 -38 -68 -78 -66 -124c2 -99 90 -129 199 -129h224zM526 908c-147 0 -243 -102 -243 -239s94 -234 242 -234s241 96 241 233c0 139 -93 240 -240 240zM552 -353c173 0 303 59 303 202
c0 112 -84 171 -241 171h-237c-14 0 -29 1 -44 3l-125 -119v-28c0 -112 71 -229 344 -229z" />
    <glyph glyph-name="g.ss01" horiz-adv-x="1205" 
d="M562 -465c-205 0 -350 104 -430 252l101 74c54 -119 173 -209 331 -209c195 0 329 141 329 379v200c-63 -147 -198 -236 -356 -236c-271 0 -446 231 -446 511c0 277 175 509 444 509c157 0 295 -89 358 -236v220h133v-968c0 -302 -185 -496 -464 -496zM566 118
c208 0 337 168 337 388c0 218 -129 388 -337 388c-209 0 -341 -172 -341 -388c0 -218 132 -388 341 -388z" />
    <glyph glyph-name="gbreve" unicode="&#x11f;" horiz-adv-x="1055" 
d="M528 1148c-205 0 -305 94 -305 265h96c0 -122 80 -183 209 -183c131 0 208 63 208 183h96c0 -175 -105 -265 -304 -265zM665 132c187 0 317 -90 317 -272c0 -192 -148 -317 -422 -317c-278 0 -476 117 -476 331c0 24 3 46 9 67l157 108c-71 33 -130 97 -132 200
c-2 76 31 146 110 204c-49 58 -77 133 -77 218c0 202 159 344 373 344c104 0 191 -33 255 -89l153 135l68 -86l-152 -132c30 -51 46 -112 46 -177c0 -204 -160 -338 -371 -338c-82 0 -156 20 -215 57c-51 -38 -68 -78 -66 -124c2 -99 90 -129 199 -129h224zM526 908
c-147 0 -243 -102 -243 -239s94 -234 242 -234s241 96 241 233c0 139 -93 240 -240 240zM552 -353c173 0 303 59 303 202c0 112 -84 171 -241 171h-237c-14 0 -29 1 -44 3l-125 -119v-28c0 -112 71 -229 344 -229z" />
    <glyph glyph-name="gbreve.ss01" horiz-adv-x="1205" 
d="M601 1148c-205 0 -305 94 -305 265h96c0 -122 80 -183 209 -183c131 0 208 63 208 183h96c0 -175 -105 -265 -304 -265zM562 -465c-205 0 -350 104 -430 252l101 74c54 -119 173 -209 331 -209c195 0 329 141 329 379v200c-63 -147 -198 -236 -356 -236
c-271 0 -446 231 -446 511c0 277 175 509 444 509c157 0 295 -89 358 -236v220h133v-968c0 -302 -185 -496 -464 -496zM566 118c208 0 337 168 337 388c0 218 -129 388 -337 388c-209 0 -341 -172 -341 -388c0 -218 132 -388 341 -388z" />
    <glyph glyph-name="uni0123" unicode="&#x123;" horiz-adv-x="1055" 
d="M747 1424l-182 -299h-141l238 299h85zM665 132c187 0 317 -90 317 -272c0 -192 -148 -317 -422 -317c-278 0 -476 117 -476 331c0 24 3 46 9 67l157 108c-71 33 -130 97 -132 200c-2 76 31 146 110 204c-49 58 -77 133 -77 218c0 202 159 344 373 344
c104 0 191 -33 255 -89l153 135l68 -86l-152 -132c30 -51 46 -112 46 -177c0 -204 -160 -338 -371 -338c-82 0 -156 20 -215 57c-51 -38 -68 -78 -66 -124c2 -99 90 -129 199 -129h224zM526 908c-147 0 -243 -102 -243 -239s94 -234 242 -234s241 96 241 233
c0 139 -93 240 -240 240zM552 -353c173 0 303 59 303 202c0 112 -84 171 -241 171h-237c-14 0 -29 1 -44 3l-125 -119v-28c0 -112 71 -229 344 -229z" />
    <glyph glyph-name="uni0123.ss01" horiz-adv-x="1205" 
d="M843 1399l-182 -299h-141l238 299h85zM562 -465c-205 0 -350 104 -430 252l101 74c54 -119 173 -209 331 -209c195 0 329 141 329 379v200c-63 -147 -198 -236 -356 -236c-271 0 -446 231 -446 511c0 277 175 509 444 509c157 0 295 -89 358 -236v220h133v-968
c0 -302 -185 -496 -464 -496zM566 118c208 0 337 168 337 388c0 218 -129 388 -337 388c-209 0 -341 -172 -341 -388c0 -218 132 -388 341 -388z" />
    <glyph glyph-name="gdotaccent" unicode="&#x121;" horiz-adv-x="1055" 
d="M596 1413v-205h-138v205h138zM665 132c187 0 317 -90 317 -272c0 -192 -148 -317 -422 -317c-278 0 -476 117 -476 331c0 24 3 46 9 67l157 108c-71 33 -130 97 -132 200c-2 76 31 146 110 204c-49 58 -77 133 -77 218c0 202 159 344 373 344c104 0 191 -33 255 -89
l153 135l68 -86l-152 -132c30 -51 46 -112 46 -177c0 -204 -160 -338 -371 -338c-82 0 -156 20 -215 57c-51 -38 -68 -78 -66 -124c2 -99 90 -129 199 -129h224zM526 908c-147 0 -243 -102 -243 -239s94 -234 242 -234s241 96 241 233c0 139 -93 240 -240 240zM552 -353
c173 0 303 59 303 202c0 112 -84 171 -241 171h-237c-14 0 -29 1 -44 3l-125 -119v-28c0 -112 71 -229 344 -229z" />
    <glyph glyph-name="gdotaccent.ss01" horiz-adv-x="1205" 
d="M531 1208v205h138v-205h-138zM562 -465c-205 0 -350 104 -430 252l101 74c54 -119 173 -209 331 -209c195 0 329 141 329 379v200c-63 -147 -198 -236 -356 -236c-271 0 -446 231 -446 511c0 277 175 509 444 509c157 0 295 -89 358 -236v220h133v-968
c0 -302 -185 -496 -464 -496zM566 118c208 0 337 168 337 388c0 218 -129 388 -337 388c-209 0 -341 -172 -341 -388c0 -218 132 -388 341 -388z" />
    <glyph glyph-name="uni0261" unicode="&#x261;" horiz-adv-x="1205" 
d="M562 -465c-205 0 -350 104 -430 252l101 74c54 -119 173 -209 331 -209c195 0 329 141 329 379v200c-63 -147 -198 -236 -356 -236c-271 0 -446 231 -446 511c0 277 175 509 444 509c157 0 295 -89 358 -236v220h133v-968c0 -302 -185 -496 -464 -496zM566 118
c208 0 337 168 337 388c0 218 -129 388 -337 388c-209 0 -341 -172 -341 -388c0 -218 132 -388 341 -388z" />
    <glyph glyph-name="h" unicode="h" horiz-adv-x="1128" 
d="M181 0v1413h134v-584c63 122 179 186 311 186c233 0 345 -166 349 -382v-633h-134v602c0 178 -70 292 -245 292c-178 0 -281 -133 -281 -324v-570h-134z" />
    <glyph glyph-name="hbar" unicode="&#x127;" horiz-adv-x="1128" 
d="M626 1015c233 0 345 -166 349 -382v-633h-134v602c0 178 -70 292 -245 292c-178 0 -281 -133 -281 -324v-570h-134v1142h-182v92h182v179h134v-179h319v-92h-319v-313c63 122 179 186 311 186z" />
    <glyph glyph-name="i" unicode="i" horiz-adv-x="489" 
d="M176 1208v205h138v-205h-138zM179 0v999h131v-999h-131z" />
    <glyph glyph-name="dotlessi" unicode="&#x131;" horiz-adv-x="490" 
d="M179 0v999h132v-999h-132z" />
    <glyph glyph-name="iacute" unicode="&#xed;" horiz-adv-x="490" 
d="M180 1127l218 286h142l-259 -286h-101zM179 0v999h132v-999h-132z" />
    <glyph glyph-name="uni01D0" unicode="&#x1d0;" horiz-adv-x="490" 
d="M244 1105l-301 308h111l190 -195l192 195h111zM179 0v999h132v-999h-132z" />
    <glyph glyph-name="icircumflex" unicode="&#xee;" horiz-adv-x="490" 
d="M-57 1113l301 319l302 -319h-110l-192 201l-190 -201h-111zM179 0v999h132v-999h-132z" />
    <glyph glyph-name="idieresis" unicode="&#xef;" horiz-adv-x="490" 
d="M5 1208v205h113v-205h-113zM369 1208v205h112v-205h-112zM179 0v999h132v-999h-132z" />
    <glyph glyph-name="i.loclTRK" horiz-adv-x="490" 
d="M175 1208v205h138v-205h-138zM179 0v999h132v-999h-132z" />
    <glyph glyph-name="igrave" unicode="&#xec;" horiz-adv-x="490" 
d="M194 1127l-259 286h142l218 -286h-101zM179 0v999h132v-999h-132z" />
    <glyph glyph-name="imacron" unicode="&#x12b;" horiz-adv-x="490" 
d="M-28 1220v82h548v-82h-548zM179 0v999h132v-999h-132z" />
    <glyph glyph-name="iogonek" unicode="&#x12f;" horiz-adv-x="490" 
d="M313 1413v-205h-138v205h138zM326 -289l70 -48c-52 -76 -118 -119 -215 -119c-125 0 -208 73 -208 190c0 140 130 239 217 266h-11v999h132v-999c-109 -30 -255 -123 -255 -250c0 -85 48 -121 122 -121c64 0 109 27 148 82z" />
    <glyph glyph-name="itilde" unicode="&#x129;" horiz-adv-x="490" 
d="M385 1147c-167 0 -168 179 -279 178c-63 1 -102 -59 -102 -160h-80c0 155 72 246 187 245c154 1 162 -177 275 -177c55 0 95 65 95 169h83c0 -158 -71 -255 -179 -255zM179 0v999h132v-999h-132z" />
    <glyph glyph-name="j" unicode="j" horiz-adv-x="495" 
d="M178 1208v205h139v-205h-139zM50 -433c-50 0 -119 15 -162 32l35 115c40 -16 86 -26 115 -26c98 0 143 56 143 177v1134h133v-1125c0 -186 -83 -307 -264 -307z" />
    <glyph glyph-name="uni0237" unicode="&#x237;" horiz-adv-x="495" 
d="M50 -433c-50 0 -119 15 -162 32l35 115c40 -16 86 -26 115 -26c98 0 143 56 143 177v1134h133v-1125c0 -186 -83 -307 -264 -307z" />
    <glyph glyph-name="k" unicode="k" horiz-adv-x="1092" 
d="M181 0v1413h132v-957l514 543h173l-362 -373l421 -626h-157l-354 543l-235 -247v-296h-132z" />
    <glyph glyph-name="uni0137" unicode="&#x137;" horiz-adv-x="1092" 
d="M181 0v1413h132v-957l514 543h173l-362 -373l421 -626h-157l-354 543l-235 -247v-296h-132zM367 -447l182 334h141l-238 -334h-85z" />
    <glyph glyph-name="kgreenlandic" unicode="&#x138;" horiz-adv-x="1091" 
d="M180 0v999h132v-543l514 543h173l-362 -373l421 -626h-157l-354 543l-235 -247v-296h-132z" />
    <glyph glyph-name="l" unicode="l" horiz-adv-x="550" 
d="M358 -15c-142 0 -184 85 -184 226v1202h132v-1168c0 -77 10 -141 110 -141c21 0 51 4 81 10l2 -113c-44 -9 -98 -16 -141 -16z" />
    <glyph glyph-name="lacute" unicode="&#x13a;" horiz-adv-x="550" 
d="M201 1540l218 286h142l-259 -286h-101zM358 -15c-142 0 -184 85 -184 226v1202h132v-1168c0 -77 10 -141 110 -141c21 0 51 4 81 10l2 -113c-44 -9 -98 -16 -141 -16z" />
    <glyph glyph-name="lcaron" unicode="&#x13e;" horiz-adv-x="550" 
d="M358 -15c-142 0 -184 85 -184 226v1202h132v-1168c0 -77 10 -141 110 -141c21 0 51 4 81 10l2 -113c-44 -9 -98 -16 -141 -16zM480 993l118 420h139l-174 -420h-83z" />
    <glyph glyph-name="uni013C" unicode="&#x13c;" horiz-adv-x="550" 
d="M358 -15c-142 0 -184 85 -184 226v1202h132v-1168c0 -77 10 -141 110 -141c21 0 51 4 81 10l2 -113c-44 -9 -98 -16 -141 -16zM126 -447l182 334h141l-238 -334h-85z" />
    <glyph glyph-name="uni01C9" unicode="&#x1c9;" horiz-adv-x="1045" 
d="M358 -15c-142 0 -184 85 -184 226v1202h132v-1168c0 -77 10 -141 110 -141c21 0 51 4 81 10l2 -113c-44 -9 -98 -16 -141 -16zM728 1208v205h139v-205h-139zM600 -433c-50 0 -119 15 -162 32l35 115c40 -16 86 -26 115 -26c98 0 143 56 143 177v1134h133v-1125
c0 -186 -83 -307 -264 -307z" />
    <glyph glyph-name="lslash" unicode="&#x142;" horiz-adv-x="566" 
d="M503 114l2 -113c-44 -9 -97 -16 -140 -16c-143 0 -185 85 -185 226v289l-92 -96v131l92 95v783h132v-646l168 174l1 -128l-169 -176v-392c0 -77 11 -141 110 -141c21 0 51 4 81 10z" />
    <glyph glyph-name="m" unicode="m" horiz-adv-x="1743" 
d="M180 0l-1 999h128v-174c55 128 167 190 301 190c147 0 263 -68 308 -221c59 146 182 221 330 221c240 0 344 -175 344 -431v-584h-132v568c0 207 -66 323 -236 323c-166 0 -271 -125 -271 -299v-592h-132v604c0 177 -71 287 -235 287c-167 0 -272 -125 -272 -299v-592
h-132z" />
    <glyph glyph-name="n" unicode="n" horiz-adv-x="1124" 
d="M179 0v999h132v-170c63 122 181 186 313 186c233 0 343 -166 347 -382v-633h-132v602c0 182 -86 290 -250 290c-169 0 -278 -107 -278 -301v-591h-132z" />
    <glyph glyph-name="nacute" unicode="&#x144;" horiz-adv-x="1124" 
d="M503 1127l218 286h142l-259 -286h-101zM179 0v999h132v-170c63 122 181 186 313 186c233 0 343 -166 347 -382v-633h-132v602c0 182 -86 290 -250 290c-169 0 -278 -107 -278 -301v-591h-132z" />
    <glyph glyph-name="ncaron" unicode="&#x148;" horiz-adv-x="1124" 
d="M567 1105l-301 308h111l190 -195l192 195h111zM179 0v999h132v-170c63 122 181 186 313 186c233 0 343 -166 347 -382v-633h-132v602c0 182 -86 290 -250 290c-169 0 -278 -107 -278 -301v-591h-132z" />
    <glyph glyph-name="uni0146" unicode="&#x146;" horiz-adv-x="1124" 
d="M179 0v999h132v-170c63 122 181 186 313 186c233 0 343 -166 347 -382v-633h-132v602c0 182 -86 290 -250 290c-169 0 -278 -107 -278 -301v-591h-132zM326 -447l182 334h141l-238 -334h-85z" />
    <glyph glyph-name="eng" unicode="&#x14b;" horiz-adv-x="1157" 
d="M692 -433c-47 0 -107 14 -146 27l32 101c36 -11 80 -19 111 -19c106 0 150 64 150 183v743c0 182 -86 290 -250 290c-169 0 -279 -107 -279 -301v-591h-131v999h131v-170c63 122 182 186 314 186c233 0 342 -166 346 -382v-760c0 -182 -92 -306 -278 -306z" />
    <glyph glyph-name="uni01CC" unicode="&#x1cc;" horiz-adv-x="1619" 
d="M1302 1208v205h139v-205h-139zM179 0v999h132v-170c63 122 181 186 313 186c233 0 343 -166 347 -382v-633h-132v602c0 182 -86 290 -250 290c-169 0 -278 -107 -278 -301v-591h-132zM1174 -433c-50 0 -119 15 -162 32l35 115c40 -16 86 -26 115 -26c98 0 143 56 143 177
v1134h133v-1125c0 -186 -83 -307 -264 -307z" />
    <glyph glyph-name="ntilde" unicode="&#xf1;" horiz-adv-x="1124" 
d="M708 1147c-167 0 -168 179 -279 178c-63 1 -102 -59 -102 -160h-80c0 155 72 246 187 245c154 1 162 -177 275 -177c55 0 95 65 95 169h83c0 -158 -71 -255 -179 -255zM179 0v999h132v-170c63 122 181 186 313 186c233 0 343 -166 347 -382v-633h-132v602
c0 182 -86 290 -250 290c-169 0 -278 -107 -278 -301v-591h-132z" />
    <glyph glyph-name="o" unicode="o" horiz-adv-x="1151" 
d="M573 -15c-284 0 -482 229 -482 517c0 285 198 513 482 513c285 0 486 -228 486 -513c0 -287 -201 -517 -486 -517zM573 100c218 0 349 181 349 402c0 220 -131 397 -349 397c-216 0 -345 -176 -345 -397c0 -222 129 -402 345 -402z" />
    <glyph glyph-name="oacute" unicode="&#xf3;" horiz-adv-x="1151" 
d="M509 1127l218 286h142l-259 -286h-101zM573 -15c-284 0 -482 229 -482 517c0 285 198 513 482 513c285 0 486 -228 486 -513c0 -287 -201 -517 -486 -517zM573 100c218 0 349 181 349 402c0 220 -131 397 -349 397c-216 0 -345 -176 -345 -397c0 -222 129 -402 345 -402z
" />
    <glyph glyph-name="uni01D2" unicode="&#x1d2;" horiz-adv-x="1151" 
d="M573 1105l-301 308h111l190 -195l192 195h111zM573 -15c-284 0 -482 229 -482 517c0 285 198 513 482 513c285 0 486 -228 486 -513c0 -287 -201 -517 -486 -517zM573 100c218 0 349 181 349 402c0 220 -131 397 -349 397c-216 0 -345 -176 -345 -397
c0 -222 129 -402 345 -402z" />
    <glyph glyph-name="ocircumflex" unicode="&#xf4;" horiz-adv-x="1151" 
d="M272 1113l301 319l302 -319h-110l-192 201l-190 -201h-111zM573 -15c-284 0 -482 229 -482 517c0 285 198 513 482 513c285 0 486 -228 486 -513c0 -287 -201 -517 -486 -517zM573 100c218 0 349 181 349 402c0 220 -131 397 -349 397c-216 0 -345 -176 -345 -397
c0 -222 129 -402 345 -402z" />
    <glyph glyph-name="uni1ED1" unicode="&#x1ed1;" horiz-adv-x="1151" 
d="M509 1540l218 286h142l-259 -286h-101zM272 1113l301 319l302 -319h-110l-192 201l-190 -201h-111zM573 -15c-284 0 -482 229 -482 517c0 285 198 513 482 513c285 0 486 -228 486 -513c0 -287 -201 -517 -486 -517zM573 100c218 0 349 181 349 402
c0 220 -131 397 -349 397c-216 0 -345 -176 -345 -397c0 -222 129 -402 345 -402z" />
    <glyph glyph-name="uni1ED3" unicode="&#x1ed3;" horiz-adv-x="1151" 
d="M523 1540l-259 286h142l218 -286h-101zM272 1113l301 319l302 -319h-110l-192 201l-190 -201h-111zM573 -15c-284 0 -482 229 -482 517c0 285 198 513 482 513c285 0 486 -228 486 -513c0 -287 -201 -517 -486 -517zM573 100c218 0 349 181 349 402
c0 220 -131 397 -349 397c-216 0 -345 -176 -345 -397c0 -222 129 -402 345 -402z" />
    <glyph glyph-name="uni1ED7" unicode="&#x1ed7;" horiz-adv-x="1151" 
d="M714 1560c-167 0 -168 179 -279 178c-63 1 -102 -59 -102 -160h-80c0 155 72 246 187 245c154 1 162 -177 275 -177c55 0 95 65 95 169h83c0 -158 -71 -255 -179 -255zM272 1113l301 319l302 -319h-110l-192 201l-190 -201h-111zM573 -15c-284 0 -482 229 -482 517
c0 285 198 513 482 513c285 0 486 -228 486 -513c0 -287 -201 -517 -486 -517zM573 100c218 0 349 181 349 402c0 220 -131 397 -349 397c-216 0 -345 -176 -345 -397c0 -222 129 -402 345 -402z" />
    <glyph glyph-name="odieresis" unicode="&#xf6;" horiz-adv-x="1151" 
d="M334 1208v205h113v-205h-113zM698 1208v205h112v-205h-112zM573 -15c-284 0 -482 229 -482 517c0 285 198 513 482 513c285 0 486 -228 486 -513c0 -287 -201 -517 -486 -517zM573 100c218 0 349 181 349 402c0 220 -131 397 -349 397c-216 0 -345 -176 -345 -397
c0 -222 129 -402 345 -402z" />
    <glyph glyph-name="ograve" unicode="&#xf2;" horiz-adv-x="1151" 
d="M523 1127l-259 286h142l218 -286h-101zM573 -15c-284 0 -482 229 -482 517c0 285 198 513 482 513c285 0 486 -228 486 -513c0 -287 -201 -517 -486 -517zM573 100c218 0 349 181 349 402c0 220 -131 397 -349 397c-216 0 -345 -176 -345 -397c0 -222 129 -402 345 -402z
" />
    <glyph glyph-name="ohungarumlaut" unicode="&#x151;" horiz-adv-x="1151" 
d="M334 1107l218 306h122l-239 -306h-101zM676 1107l218 306h142l-259 -306h-101zM573 -15c-284 0 -482 229 -482 517c0 285 198 513 482 513c285 0 486 -228 486 -513c0 -287 -201 -517 -486 -517zM573 100c218 0 349 181 349 402c0 220 -131 397 -349 397
c-216 0 -345 -176 -345 -397c0 -222 129 -402 345 -402z" />
    <glyph glyph-name="omacron" unicode="&#x14d;" horiz-adv-x="1151" 
d="M301 1220v82h548v-82h-548zM573 -15c-284 0 -482 229 -482 517c0 285 198 513 482 513c285 0 486 -228 486 -513c0 -287 -201 -517 -486 -517zM573 100c218 0 349 181 349 402c0 220 -131 397 -349 397c-216 0 -345 -176 -345 -397c0 -222 129 -402 345 -402z" />
    <glyph glyph-name="uni01EB" unicode="&#x1eb;" horiz-adv-x="1151" 
d="M676 -5c-107 -34 -240 -124 -240 -245c0 -85 48 -121 122 -121c64 0 109 27 148 82l70 -48c-52 -76 -118 -119 -215 -119c-125 0 -208 73 -208 190c0 122 99 213 182 252c-263 20 -444 241 -444 516c0 285 198 513 482 513c285 0 486 -228 486 -513
c0 -251 -154 -459 -383 -507zM228 502c0 -222 129 -402 345 -402c218 0 349 181 349 402c0 220 -131 397 -349 397c-216 0 -345 -176 -345 -397z" />
    <glyph glyph-name="uni0254" unicode="&#x254;" horiz-adv-x="1016" 
d="M469 -15c-184 0 -329 101 -390 275l121 46c40 -124 140 -201 270 -201c216 0 315 187 315 393c0 203 -99 396 -314 396c-128 0 -229 -78 -276 -203l-126 49c74 180 220 275 402 275c300 0 448 -255 448 -517c0 -283 -163 -513 -450 -513z" />
    <glyph glyph-name="oslash" unicode="&#xf8;" horiz-adv-x="1151" 
d="M868 916c119 -93 191 -243 191 -414c0 -287 -201 -517 -486 -517c-91 0 -173 24 -243 65l-31 -50h-73l53 85c-117 94 -188 245 -188 417c0 285 198 513 482 513c91 0 174 -23 245 -65l30 49h72zM228 502c0 -126 41 -238 116 -312l410 659c-50 32 -111 50 -181 50
c-216 0 -345 -176 -345 -397zM573 100c218 0 349 181 349 402c0 125 -42 236 -119 309l-410 -660c50 -32 111 -51 180 -51z" />
    <glyph glyph-name="oslashacute" unicode="&#x1ff;" horiz-adv-x="1151" 
d="M869 1413l-259 -286h-101l218 286h142zM868 916c119 -93 191 -243 191 -414c0 -287 -201 -517 -486 -517c-91 0 -173 24 -243 65l-31 -50h-73l53 85c-117 94 -188 245 -188 417c0 285 198 513 482 513c91 0 174 -23 245 -65l30 49h72zM228 502c0 -126 41 -238 116 -312
l410 659c-50 32 -111 50 -181 50c-216 0 -345 -176 -345 -397zM573 100c218 0 349 181 349 402c0 125 -42 236 -119 309l-410 -660c50 -32 111 -51 180 -51z" />
    <glyph glyph-name="otilde" unicode="&#xf5;" horiz-adv-x="1151" 
d="M714 1147c-167 0 -168 179 -279 178c-63 1 -102 -59 -102 -160h-80c0 155 72 246 187 245c154 1 162 -177 275 -177c55 0 95 65 95 169h83c0 -158 -71 -255 -179 -255zM573 -15c-284 0 -482 229 -482 517c0 285 198 513 482 513c285 0 486 -228 486 -513
c0 -287 -201 -517 -486 -517zM573 100c218 0 349 181 349 402c0 220 -131 397 -349 397c-216 0 -345 -176 -345 -397c0 -222 129 -402 345 -402z" />
    <glyph glyph-name="oe" unicode="&#x153;" horiz-adv-x="1900" 
d="M1806 553c0 -34 -3 -74 -7 -89h-736c10 -223 126 -359 327 -359c120 0 203 33 293 127l92 -81c-112 -117 -225 -166 -386 -166c-194 0 -331 92 -404 234c-84 -141 -231 -234 -412 -234c-284 0 -482 229 -482 517c0 285 198 513 482 513c183 0 331 -94 414 -236
c71 141 202 236 386 236c326 0 433 -264 433 -462zM1674 562c1 21 1 43 -2 63c-12 135 -102 277 -300 277c-182 0 -292 -140 -309 -340h611zM573 100c218 0 349 181 349 402c0 220 -131 397 -349 397c-216 0 -345 -176 -345 -397c0 -222 129 -402 345 -402z" />
    <glyph glyph-name="p" unicode="p" horiz-adv-x="1199" 
d="M181 -414v1413h136v-221c63 148 201 237 359 237c268 0 423 -233 423 -516c0 -284 -155 -514 -425 -514c-159 0 -294 89 -357 235v-634h-136zM645 105c209 0 321 173 321 394c0 222 -112 393 -321 393c-208 0 -339 -169 -339 -393s131 -394 339 -394z" />
    <glyph glyph-name="thorn" unicode="&#xfe;" horiz-adv-x="1199" 
d="M676 1015c268 0 423 -233 423 -516c0 -284 -155 -514 -425 -514c-159 0 -294 89 -357 235v-634h-136v1827h136v-635c63 148 201 237 359 237zM645 892c-208 0 -339 -169 -339 -393s131 -394 339 -394c209 0 321 173 321 394c0 222 -112 393 -321 393z" />
    <glyph glyph-name="q" unicode="q" horiz-adv-x="1199" 
d="M1018 -414h-136v634c-63 -146 -198 -235 -357 -235c-270 0 -425 230 -425 514c0 283 155 516 423 516c158 0 296 -89 359 -237v221h136v-1413zM554 105c208 0 339 170 339 394s-131 393 -339 393c-209 0 -321 -171 -321 -393c0 -221 112 -394 321 -394z" />
    <glyph glyph-name="r" unicode="r" horiz-adv-x="793" 
d="M179 0v999h129v-209c50 154 189 225 308 225c56 0 113 -16 156 -48l-60 -110c-35 19 -74 29 -114 29c-133 0 -291 -105 -291 -376v-510h-128z" />
    <glyph glyph-name="racute" unicode="&#x155;" horiz-adv-x="793" 
d="M375 1127l218 286h142l-259 -286h-101zM179 0v999h129v-209c50 154 189 225 308 225c56 0 113 -16 156 -48l-60 -110c-35 19 -74 29 -114 29c-133 0 -291 -105 -291 -376v-510h-128z" />
    <glyph glyph-name="rcaron" unicode="&#x159;" horiz-adv-x="793" 
d="M439 1105l-301 308h111l190 -195l192 195h111zM179 0v999h129v-209c50 154 189 225 308 225c56 0 113 -16 156 -48l-60 -110c-35 19 -74 29 -114 29c-133 0 -291 -105 -291 -376v-510h-128z" />
    <glyph glyph-name="uni0157" unicode="&#x157;" horiz-adv-x="793" 
d="M179 0v999h129v-209c50 154 189 225 308 225c56 0 113 -16 156 -48l-60 -110c-35 19 -74 29 -114 29c-133 0 -291 -105 -291 -376v-510h-128zM154 -447l182 334h141l-238 -334h-85z" />
    <glyph glyph-name="s" unicode="s" horiz-adv-x="928" 
d="M476 -15c-197 0 -354 111 -405 263l107 47c38 -107 137 -199 292 -199c151 0 231 79 231 184c0 271 -580 99 -580 460c0 178 151 275 342 275c158 0 281 -77 351 -209l-102 -55c-48 90 -131 157 -253 157c-129 0 -211 -62 -211 -151c0 -248 583 -88 583 -471
c0 -200 -160 -301 -355 -301z" />
    <glyph glyph-name="sacute" unicode="&#x15b;" horiz-adv-x="928" 
d="M385 1127l218 286h142l-259 -286h-101zM476 -15c-197 0 -354 111 -405 263l107 47c38 -107 137 -199 292 -199c151 0 231 79 231 184c0 271 -580 99 -580 460c0 178 151 275 342 275c158 0 281 -77 351 -209l-102 -55c-48 90 -131 157 -253 157
c-129 0 -211 -62 -211 -151c0 -248 583 -88 583 -471c0 -200 -160 -301 -355 -301z" />
    <glyph glyph-name="scaron" unicode="&#x161;" horiz-adv-x="928" 
d="M449 1105l-301 308h111l190 -195l192 195h111zM476 -15c-197 0 -354 111 -405 263l107 47c38 -107 137 -199 292 -199c151 0 231 79 231 184c0 271 -580 99 -580 460c0 178 151 275 342 275c158 0 281 -77 351 -209l-102 -55c-48 90 -131 157 -253 157
c-129 0 -211 -62 -211 -151c0 -248 583 -88 583 -471c0 -200 -160 -301 -355 -301z" />
    <glyph glyph-name="scedilla" unicode="&#x15f;" horiz-adv-x="928" 
d="M831 286c0 -181 -131 -281 -300 -298l-75 -121c24 -1 45 -4 64 -8c114 -23 175 -85 175 -178c0 -117 -83 -197 -208 -197c-83 0 -162 53 -193 129l78 33c17 -48 65 -82 118 -82c77 0 123 42 123 112c0 74 -67 123 -182 131c-25 2 -53 3 -87 3l103 176
c-183 10 -328 117 -376 262l107 47c38 -107 137 -199 292 -199c151 0 231 79 231 184c0 271 -580 99 -580 460c0 178 151 275 342 275c158 0 281 -77 351 -209l-102 -55c-48 90 -131 157 -253 157c-129 0 -211 -62 -211 -151c0 -248 583 -88 583 -471z" />
    <glyph glyph-name="uni0219" unicode="&#x219;" horiz-adv-x="928" 
d="M476 -15c-197 0 -354 111 -405 263l107 47c38 -107 137 -199 292 -199c151 0 231 79 231 184c0 271 -580 99 -580 460c0 178 151 275 342 275c158 0 281 -77 351 -209l-102 -55c-48 90 -131 157 -253 157c-129 0 -211 -62 -211 -151c0 -248 583 -88 583 -471
c0 -200 -160 -301 -355 -301zM254 -447l182 334h141l-238 -334h-85z" />
    <glyph glyph-name="germandbls" unicode="&#xdf;" horiz-adv-x="1203" 
d="M726 -14c-86 0 -166 22 -244 55l46 114c67 -30 131 -49 195 -49c136 0 219 82 219 205c0 210 -305 256 -305 456c0 177 223 162 223 325c0 132 -114 222 -271 222c-189 0 -278 -132 -278 -394v-920h-131v920c0 337 162 508 402 508c218 0 409 -138 409 -345
c0 -219 -231 -212 -231 -321c0 -125 315 -174 315 -450c0 -196 -144 -326 -349 -326z" />
    <glyph glyph-name="t" unicode="t" horiz-adv-x="702" 
d="M483 -15c-177 0 -272 104 -272 295v607h-166v112h168v289l130 97v-386h280v-112h-280v-586c0 -141 56 -199 162 -199c44 0 89 13 117 24l2 -121c-31 -10 -85 -20 -141 -20z" />
    <glyph glyph-name="tbar" unicode="&#x167;" horiz-adv-x="702" 
d="M660 454h-317v-153c0 -141 56 -199 162 -199c44 0 89 13 117 24l2 -121c-31 -10 -85 -20 -141 -20c-177 0 -272 104 -272 295v174h-186v92h186v341h-166v112h168v289l130 97v-386h280v-112h-280v-341h317v-92z" />
    <glyph glyph-name="tcaron" unicode="&#x165;" horiz-adv-x="702" 
d="M499 1149l118 420h139l-174 -420h-83zM483 -15c-177 0 -272 104 -272 295v607h-166v112h168v289l130 97v-386h280v-112h-280v-586c0 -141 56 -199 162 -199c44 0 89 13 117 24l2 -121c-31 -10 -85 -20 -141 -20z" />
    <glyph glyph-name="uni0163" unicode="&#x163;" horiz-adv-x="702" 
d="M505 -141c114 -23 175 -85 175 -178c0 -117 -83 -197 -208 -197c-83 0 -162 53 -193 129l78 33c17 -48 65 -82 118 -82c77 0 123 42 123 112c0 74 -67 123 -182 131c-25 2 -53 3 -87 3l105 178c-146 18 -223 120 -223 292v607h-166v112h168v289l130 97v-386h280v-112
h-280v-586c0 -141 56 -199 162 -199c44 0 89 13 117 24l2 -121c-25 -8 -65 -16 -109 -19l-74 -119c24 -1 45 -4 64 -8z" />
    <glyph glyph-name="uni021B" unicode="&#x21b;" horiz-adv-x="702" 
d="M483 -15c-177 0 -272 104 -272 295v607h-166v112h168v289l130 97v-386h280v-112h-280v-586c0 -141 56 -199 162 -199c44 0 89 13 117 24l2 -121c-31 -10 -85 -20 -141 -20zM239 -447l182 334h141l-238 -334h-85z" />
    <glyph glyph-name="u" unicode="u" horiz-adv-x="1123" 
d="M500 -15c-234 0 -342 166 -346 382v632h131v-602c0 -182 86 -289 250 -289c168 0 278 106 278 301v590h131v-999h-131v170c-62 -122 -181 -185 -313 -185z" />
    <glyph glyph-name="uacute" unicode="&#xfa;" horiz-adv-x="1123" 
d="M494 1127l218 286h142l-259 -286h-101zM500 -15c-234 0 -342 166 -346 382v632h131v-602c0 -182 86 -289 250 -289c168 0 278 106 278 301v590h131v-999h-131v170c-62 -122 -181 -185 -313 -185z" />
    <glyph glyph-name="uni01D4" unicode="&#x1d4;" horiz-adv-x="1123" 
d="M558 1105l-301 308h111l190 -195l192 195h111zM500 -15c-234 0 -342 166 -346 382v632h131v-602c0 -182 86 -289 250 -289c168 0 278 106 278 301v590h131v-999h-131v170c-62 -122 -181 -185 -313 -185z" />
    <glyph glyph-name="ucircumflex" unicode="&#xfb;" horiz-adv-x="1123" 
d="M257 1113l301 319l302 -319h-110l-192 201l-190 -201h-111zM500 -15c-234 0 -342 166 -346 382v632h131v-602c0 -182 86 -289 250 -289c168 0 278 106 278 301v590h131v-999h-131v170c-62 -122 -181 -185 -313 -185z" />
    <glyph glyph-name="udieresis" unicode="&#xfc;" horiz-adv-x="1123" 
d="M319 1208v205h113v-205h-113zM683 1208v205h112v-205h-112zM500 -15c-234 0 -342 166 -346 382v632h131v-602c0 -182 86 -289 250 -289c168 0 278 106 278 301v590h131v-999h-131v170c-62 -122 -181 -185 -313 -185z" />
    <glyph glyph-name="uni01D8" unicode="&#x1d8;" horiz-adv-x="1123" 
d="M494 1541l218 286h142l-259 -286h-101zM319 1208v205h113v-205h-113zM683 1208v205h112v-205h-112zM500 -15c-234 0 -342 166 -346 382v632h131v-602c0 -182 86 -289 250 -289c168 0 278 106 278 301v590h131v-999h-131v170c-62 -122 -181 -185 -313 -185z" />
    <glyph glyph-name="uni01DA" unicode="&#x1da;" horiz-adv-x="1123" 
d="M558 1519l-301 308h111l190 -195l192 195h111zM319 1208v205h113v-205h-113zM683 1208v205h112v-205h-112zM500 -15c-234 0 -342 166 -346 382v632h131v-602c0 -182 86 -289 250 -289c168 0 278 106 278 301v590h131v-999h-131v170c-62 -122 -181 -185 -313 -185z" />
    <glyph glyph-name="uni01DC" unicode="&#x1dc;" horiz-adv-x="1123" 
d="M508 1541l-259 286h142l218 -286h-101zM319 1208v205h113v-205h-113zM683 1208v205h112v-205h-112zM500 -15c-234 0 -342 166 -346 382v632h131v-602c0 -182 86 -289 250 -289c168 0 278 106 278 301v590h131v-999h-131v170c-62 -122 -181 -185 -313 -185z" />
    <glyph glyph-name="uni01D6" unicode="&#x1d6;" horiz-adv-x="1123" 
d="M286 1634v82h548v-82h-548zM319 1208v205h113v-205h-113zM683 1208v205h112v-205h-112zM500 -15c-234 0 -342 166 -346 382v632h131v-602c0 -182 86 -289 250 -289c168 0 278 106 278 301v590h131v-999h-131v170c-62 -122 -181 -185 -313 -185z" />
    <glyph glyph-name="ugrave" unicode="&#xf9;" horiz-adv-x="1123" 
d="M508 1127l-259 286h142l218 -286h-101zM500 -15c-234 0 -342 166 -346 382v632h131v-602c0 -182 86 -289 250 -289c168 0 278 106 278 301v590h131v-999h-131v170c-62 -122 -181 -185 -313 -185z" />
    <glyph glyph-name="uhungarumlaut" unicode="&#x171;" horiz-adv-x="1123" 
d="M319 1107l218 306h122l-239 -306h-101zM661 1107l218 306h142l-259 -306h-101zM500 -15c-234 0 -342 166 -346 382v632h131v-602c0 -182 86 -289 250 -289c168 0 278 106 278 301v590h131v-999h-131v170c-62 -122 -181 -185 -313 -185z" />
    <glyph glyph-name="umacron" unicode="&#x16b;" horiz-adv-x="1123" 
d="M286 1220v82h548v-82h-548zM500 -15c-234 0 -342 166 -346 382v632h131v-602c0 -182 86 -289 250 -289c168 0 278 106 278 301v590h131v-999h-131v170c-62 -122 -181 -185 -313 -185z" />
    <glyph glyph-name="uogonek" unicode="&#x173;" horiz-adv-x="1123" 
d="M959 -289l70 -48c-52 -76 -118 -119 -215 -119c-125 0 -208 73 -208 190c0 140 130 239 217 266h-10v170c-62 -122 -181 -185 -313 -185c-234 0 -342 166 -346 382v632h131v-602c0 -182 86 -289 250 -289c168 0 278 106 278 301v590h131v-999
c-109 -30 -255 -123 -255 -250c0 -85 48 -121 122 -121c64 0 109 27 148 82z" />
    <glyph glyph-name="uring" unicode="&#x16f;" horiz-adv-x="1123" 
d="M556 1095c-108 0 -193 88 -193 194c0 108 86 194 193 194c106 0 195 -86 195 -194s-86 -194 -195 -194zM556 1170c68 0 119 53 119 120c0 66 -49 117 -119 117c-67 0 -117 -51 -117 -117c0 -68 51 -120 117 -120zM500 -15c-234 0 -342 166 -346 382v632h131v-602
c0 -182 86 -289 250 -289c168 0 278 106 278 301v590h131v-999h-131v170c-62 -122 -181 -185 -313 -185z" />
    <glyph glyph-name="utilde" unicode="&#x169;" horiz-adv-x="1123" 
d="M699 1147c-167 0 -168 179 -279 178c-63 1 -102 -59 -102 -160h-80c0 155 72 246 187 245c154 1 162 -177 275 -177c55 0 95 65 95 169h83c0 -158 -71 -255 -179 -255zM500 -15c-234 0 -342 166 -346 382v632h131v-602c0 -182 86 -289 250 -289c168 0 278 106 278 301
v590h131v-999h-131v170c-62 -122 -181 -185 -313 -185z" />
    <glyph glyph-name="v" unicode="v" horiz-adv-x="1001" 
d="M444 0l-408 999h144l321 -831l320 831h145l-409 -999h-113z" />
    <glyph glyph-name="w" unicode="w" horiz-adv-x="1486" 
d="M345 0l-291 999h142l219 -800l268 800h121l267 -799l220 799h142l-292 -999h-125l-273 817l-273 -817h-125z" />
    <glyph glyph-name="wacute" unicode="&#x1e83;" horiz-adv-x="1486" 
d="M680 1127l218 286h142l-259 -286h-101zM345 0l-291 999h142l219 -800l268 800h121l267 -799l220 799h142l-292 -999h-125l-273 817l-273 -817h-125z" />
    <glyph glyph-name="wcircumflex" unicode="&#x175;" horiz-adv-x="1486" 
d="M443 1113l301 319l302 -319h-110l-192 201l-190 -201h-111zM345 0l-291 999h142l219 -800l268 800h121l267 -799l220 799h142l-292 -999h-125l-273 817l-273 -817h-125z" />
    <glyph glyph-name="wdieresis" unicode="&#x1e85;" horiz-adv-x="1486" 
d="M505 1208v205h113v-205h-113zM869 1208v205h112v-205h-112zM345 0l-291 999h142l219 -800l268 800h121l267 -799l220 799h142l-292 -999h-125l-273 817l-273 -817h-125z" />
    <glyph glyph-name="wgrave" unicode="&#x1e81;" horiz-adv-x="1486" 
d="M694 1127l-259 286h142l218 -286h-101zM345 0l-291 999h142l219 -800l268 800h121l267 -799l220 799h142l-292 -999h-125l-273 817l-273 -817h-125z" />
    <glyph glyph-name="x" unicode="x" horiz-adv-x="1006" 
d="M48 0l367 502l-367 497h161l293 -406l292 406h162l-367 -497l368 -502h-162l-293 410l-292 -410h-162z" />
    <glyph glyph-name="y" unicode="y" horiz-adv-x="1020" 
d="M290 -428l170 440l-425 987h145l350 -832l308 832h144l-548 -1427h-144z" />
    <glyph glyph-name="yacute" unicode="&#xfd;" horiz-adv-x="1020" 
d="M441 1127l218 286h142l-259 -286h-101zM290 -428l170 440l-425 987h145l350 -832l308 832h144l-548 -1427h-144z" />
    <glyph glyph-name="ycircumflex" unicode="&#x177;" horiz-adv-x="1020" 
d="M204 1113l301 319l302 -319h-110l-192 201l-190 -201h-111zM290 -428l170 440l-425 987h145l350 -832l308 832h144l-548 -1427h-144z" />
    <glyph glyph-name="ydieresis" unicode="&#xff;" horiz-adv-x="1020" 
d="M266 1208v205h113v-205h-113zM630 1208v205h112v-205h-112zM290 -428l170 440l-425 987h145l350 -832l308 832h144l-548 -1427h-144z" />
    <glyph glyph-name="ygrave" unicode="&#x1ef3;" horiz-adv-x="1020" 
d="M455 1127l-259 286h142l218 -286h-101zM290 -428l170 440l-425 987h145l350 -832l308 832h144l-548 -1427h-144z" />
    <glyph glyph-name="uni1EF9" unicode="&#x1ef9;" horiz-adv-x="1020" 
d="M646 1147c-167 0 -168 179 -279 178c-63 1 -102 -59 -102 -160h-80c0 155 72 246 187 245c154 1 162 -177 275 -177c55 0 95 65 95 169h83c0 -158 -71 -255 -179 -255zM290 -428l170 440l-425 987h145l350 -832l308 832h144l-548 -1427h-144z" />
    <glyph glyph-name="z" unicode="z" horiz-adv-x="979" 
d="M899 999v-106l-655 -780h650v-113h-826v97l669 790h-636v112h798z" />
    <glyph glyph-name="zacute" unicode="&#x17a;" horiz-adv-x="979" 
d="M777 1413l-259 -286h-101l218 286h142zM899 999v-106l-655 -780h650v-113h-826v97l669 790h-636v112h798z" />
    <glyph glyph-name="zcaron" unicode="&#x17e;" horiz-adv-x="979" 
d="M784 1413l-303 -308l-301 308h111l190 -195l192 195h111zM899 999v-106l-655 -780h650v-113h-826v97l669 790h-636v112h798z" />
    <glyph glyph-name="zdotaccent" unicode="&#x17c;" horiz-adv-x="979" 
d="M550 1413v-205h-138v205h138zM899 999v-106l-655 -780h650v-113h-826v97l669 790h-636v112h798z" />
    <glyph glyph-name="T_h" horiz-adv-x="2102" 
d="M558 0v1289h-493v124h1224v-584c63 122 178 186 310 186c234 0 346 -166 350 -382v-633h-134v602c0 178 -70 292 -245 292c-178 0 -281 -133 -281 -324v-570h-134v1289h-460v-1289h-137z" />
    <glyph glyph-name="f_t" horiz-adv-x="1197" 
d="M979 -15c-178 0 -273 104 -273 295v607h-368v-887h-132v887h-166v112h166v83c0 238 150 346 339 346c120 0 215 -29 292 -80v-349h280v-112h-280v-586c0 -141 57 -199 162 -199c44 0 90 13 117 24l2 -121c-31 -10 -86 -20 -139 -20zM338 999h370v275
c-40 30 -96 46 -157 46c-137 0 -213 -72 -213 -240v-81z" />
    <glyph glyph-name="t_t" horiz-adv-x="1340" 
d="M525 -15c-193 0 -297 104 -297 295v607h-183v112h185v289l129 97v-386h459v289l127 97v-386h316v-112h-316v-586c0 -141 66 -199 188 -199c48 0 97 13 127 24l2 -121c-33 -10 -93 -20 -149 -20c-194 0 -297 104 -297 295v607h-457v-586c0 -141 64 -199 187 -199
c47 0 96 13 126 24l2 -121c-33 -10 -91 -20 -149 -20z" />
    <glyph glyph-name="ordfeminine" unicode="&#xaa;" horiz-adv-x="1040" 
d="M445 705c-136 0 -239 80 -239 209c0 145 113 210 295 210h205c0 17 -1 33 -4 47c-8 120 -71 183 -196 183c-96 0 -159 -45 -211 -119l-66 45c77 105 157 148 279 148c178 0 276 -105 276 -281v-431h-73l-2 135c-65 -98 -151 -146 -264 -146zM459 781
c105 0 188 59 236 161c5 35 10 73 11 109h-200c-140 0 -213 -47 -213 -137c0 -79 71 -133 166 -133z" />
    <glyph glyph-name="ordmasculine" unicode="&#xba;" horiz-adv-x="1016" 
d="M508 716c-200 0 -343 157 -343 357c0 198 143 355 343 355c198 0 341 -157 341 -355c0 -200 -142 -357 -341 -357zM508 799c155 0 247 119 247 274s-92 274 -247 274c-157 0 -249 -119 -249 -274s92 -274 249 -274z" />
    <glyph glyph-name="uni01C3" unicode="&#x1c3;" horiz-adv-x="573" 
d="M237 397l-15 1016h129l-14 -1016h-100zM215 0v219h143v-219h-143z" />
    <glyph glyph-name="uni03BC" unicode="&#x3bc;" horiz-adv-x="1290" 
d="M269 -348v1347h131v-602c0 -182 86 -289 250 -289c169 0 279 106 279 301v590h131v-999h-131v170c-63 -122 -181 -185 -314 -185c-112 0 -193 43 -237 124v-457h-109z" />
    <glyph glyph-name="pi" unicode="&#x3c0;" horiz-adv-x="1075" 
d="M907 -15c-150 0 -227 156 -227 454v448h-370v-887h-112v887h-105v112h808v-112h-108v-431c0 -261 43 -371 122 -371c19 0 44 4 72 16l35 -90c-37 -17 -78 -26 -115 -26z" />
    <glyph glyph-name="zero" unicode="0" horiz-adv-x="1147" 
d="M584 -15c-410 0 -501 415 -501 722c0 309 88 724 486 724c363 0 499 -369 499 -728c0 -355 -133 -718 -484 -718zM581 115c263 0 346 302 346 591c0 293 -85 592 -358 592c-287 0 -351 -321 -351 -591c0 -268 65 -592 363 -592z" />
    <glyph glyph-name="one" unicode="1" horiz-adv-x="1147" 
d="M610 1413h130v-1413h-135v1078h-355v107h240c78 0 120 30 120 106v122z" />
    <glyph glyph-name="two" unicode="2" horiz-adv-x="1147" 
d="M285 125h782v-125h-986v125c336 210 774 510 774 891c0 172 -100 288 -287 288c-217 0 -315 -157 -318 -366l-134 8c0 274 165 481 451 481c253 0 425 -152 425 -414c0 -377 -395 -701 -707 -888z" />
    <glyph glyph-name="three" unicode="3" horiz-adv-x="1147" 
d="M562 -15c-281 0 -493 155 -493 436l131 7c0 -198 147 -316 364 -316c205 0 360 110 360 299c0 244 -244 277 -430 276v114c204 -1 354 59 354 249c0 153 -123 250 -288 250c-176 0 -294 -105 -295 -269l-130 8c0 241 184 389 423 389c230 0 422 -143 422 -363
c0 -177 -125 -272 -280 -312c196 -34 355 -142 355 -353c0 -262 -217 -415 -493 -415z" />
    <glyph glyph-name="four" unicode="4" horiz-adv-x="1147" 
d="M879 463h230v-126h-230v-337h-136v337h-707v88l718 988h125v-950zM209 463h534v748z" />
    <glyph glyph-name="five" unicode="5" horiz-adv-x="1147" 
d="M601 943c256 0 456 -207 456 -471c0 -267 -217 -487 -489 -487c-237 0 -426 170 -478 405l128 35c38 -176 159 -315 350 -315c201 0 350 166 350 363c0 195 -135 346 -335 346c-121 0 -238 -61 -313 -171l-136 38l129 727h726v-127h-617l-82 -466c97 84 201 123 311 123z
" />
    <glyph glyph-name="six" unicode="6" horiz-adv-x="1147" 
d="M668 904c215 -35 386 -223 386 -451c0 -257 -214 -468 -479 -468c-264 0 -479 210 -479 466c0 95 30 178 74 251l425 711h156l-321 -534c74 29 156 39 238 25zM575 113c190 0 345 153 345 341c0 186 -155 340 -345 340c-189 0 -345 -153 -345 -341s154 -340 345 -340z
" />
    <glyph glyph-name="seven" unicode="7" horiz-adv-x="1147" 
d="M67 1413h1010v-83l-692 -1330h-152l682 1287h-848v126z" />
    <glyph glyph-name="eight" unicode="8" horiz-adv-x="1147" 
d="M572 -15c-239 0 -474 136 -474 410c0 180 107 317 269 371c-117 56 -187 169 -187 309c0 227 197 353 394 353c217 0 395 -140 395 -360c0 -137 -75 -249 -189 -302c164 -57 264 -194 264 -370c0 -276 -232 -411 -472 -411zM578 807c150 0 260 100 260 251
c0 155 -110 255 -261 255c-135 0 -262 -84 -262 -245c0 -157 105 -261 263 -261zM571 103c179 0 337 100 337 306c0 186 -141 305 -337 305c-198 0 -339 -119 -339 -304c0 -207 163 -307 339 -307z" />
    <glyph glyph-name="nine" unicode="9" horiz-adv-x="1147" 
d="M586 1428c264 0 479 -210 479 -466c0 -95 -30 -178 -74 -251l-425 -711h-156l321 534c-74 -29 -156 -39 -238 -25c-215 35 -386 223 -386 451c0 257 214 468 479 468zM586 619c189 0 345 153 345 341s-154 340 -345 340c-190 0 -345 -153 -345 -341
c0 -186 155 -340 345 -340z" />
    <glyph glyph-name="fraction" unicode="&#x2044;" horiz-adv-x="287" 
d="M-302 0l795 1413h96l-795 -1413h-96z" />
    <glyph glyph-name="period" unicode="." horiz-adv-x="627" 
d="M247 0v220h133v-220h-133z" />
    <glyph glyph-name="comma" unicode="," horiz-adv-x="652" 
d="M159 -315l209 577h151l-268 -577h-92z" />
    <glyph glyph-name="colon" unicode=":" horiz-adv-x="647" 
d="M252 734v220h143v-220h-143zM252 0v220h143v-220h-143z" />
    <glyph glyph-name="semicolon" unicode=";" horiz-adv-x="673" 
d="M318 734v220h144v-220h-144zM126 -315l209 577h151l-268 -577h-92z" />
    <glyph glyph-name="ellipsis" unicode="&#x2026;" horiz-adv-x="1454" 
d="M247 0v220h133v-220h-133zM660 0v220h134v-220h-134zM1074 0v220h133v-220h-133z" />
    <glyph glyph-name="exclam" unicode="!" horiz-adv-x="627" 
d="M262 398l-14 1015h131l-14 -1015h-103zM242 0v220h143v-220h-143z" />
    <glyph glyph-name="exclamdown" unicode="&#xa1;" horiz-adv-x="627" 
d="M242 1413h143v-220h-143v220zM262 1015h103l14 -1015h-131z" />
    <glyph glyph-name="question" unicode="?" horiz-adv-x="1055" 
d="M463 394v166c0 303 356 219 356 499c0 170 -114 258 -304 258s-295 -107 -296 -282h-118c1 245 164 393 410 393c247 0 425 -131 425 -371c0 -356 -359 -300 -359 -498v-165h-114zM450 0v220h143v-220h-143z" />
    <glyph glyph-name="questiondown" unicode="&#xbf;" horiz-adv-x="1055" 
d="M605 1413v-220h-143v220h143zM592 1019v-166c0 -303 -356 -219 -356 -499c0 -170 114 -258 304 -258s295 107 296 282h118c-1 -245 -164 -393 -410 -393c-247 0 -425 131 -425 371c0 356 359 300 359 498v165h114z" />
    <glyph glyph-name="periodcentered" unicode="&#xb7;" horiz-adv-x="685" 
d="M342 599c-75 0 -133 60 -133 134c0 76 58 133 133 133s134 -57 134 -133c0 -74 -59 -134 -134 -134z" />
    <glyph glyph-name="bullet" unicode="&#x2022;" horiz-adv-x="852" 
d="M426 244c-131 0 -238 106 -238 237s107 238 238 238s238 -107 238 -238s-107 -237 -238 -237z" />
    <glyph glyph-name="asterisk" unicode="*" horiz-adv-x="936" 
d="M348 844l-116 80l175 187l-249 35l46 133l226 -100l-33 234h143l-34 -234l227 100l45 -133l-249 -35l174 -187l-117 -80l-118 233z" />
    <glyph glyph-name="numbersign" unicode="#" horiz-adv-x="1421" 
d="M274 0l91 429h-249v96h269l80 388h-264v101h284l88 399h107l-86 -403h354l85 403h107l-87 -403h254v-97h-275l-82 -388h272v-96h-292l-89 -429h-107l90 429h-355l-88 -429h-107zM492 525h355l79 388h-355z" />
    <glyph glyph-name="slash" unicode="/" horiz-adv-x="876" 
d="M13 -427l723 1840h126l-723 -1840h-126z" />
    <glyph glyph-name="backslash" unicode="\" horiz-adv-x="909" 
d="M772 -428l-761 1941h126l761 -1941h-126z" />
    <glyph glyph-name="twodotenleader" unicode="&#x2025;" horiz-adv-x="1040" 
d="M247 0v220h133v-220h-133zM660 0v220h134v-220h-134z" />
    <glyph glyph-name="uni2023" unicode="&#x2023;" horiz-adv-x="895" 
d="M251 202v607l528 -303z" />
    <glyph glyph-name="parenleft" unicode="(" horiz-adv-x="567" 
d="M377 -62c-149 167 -236 513 -236 768c0 301 81 584 235 768h123c-176 -217 -251 -499 -251 -771c0 -289 86 -564 249 -765h-120z" />
    <glyph glyph-name="parenright" unicode=")" horiz-adv-x="567" 
d="M190 -62h-120c163 201 249 476 249 765c0 272 -75 554 -251 771h123c154 -184 235 -467 235 -768c0 -255 -87 -601 -236 -768z" />
    <glyph glyph-name="braceleft" unicode="{" horiz-adv-x="625" 
d="M427 -138c-135 0 -207 98 -207 252v354c0 88 -55 120 -121 142v100c70 19 121 51 121 157v384c0 161 73 248 217 248h106v-89h-64c-105 0 -145 -57 -145 -161v-384c0 -115 -45 -172 -126 -200v-10c78 -32 126 -87 126 -185v-354c0 -101 45 -165 135 -165h73v-89h-115z
" />
    <glyph glyph-name="braceright" unicode="}" horiz-adv-x="625" 
d="M198 -138h-115v89h73c90 0 135 64 135 165v354c0 98 48 153 126 185v10c-81 28 -126 85 -126 200v384c0 104 -40 161 -145 161h-64v89h106c144 0 217 -87 217 -248v-384c0 -106 51 -138 121 -157v-100c-66 -22 -121 -54 -121 -142v-354c0 -154 -72 -252 -207 -252z" />
    <glyph glyph-name="bracketleft" unicode="[" horiz-adv-x="660" 
d="M216 -125v1660h373v-91h-264v-1477h264v-92h-373z" />
    <glyph glyph-name="bracketright" unicode="]" horiz-adv-x="660" 
d="M444 -125h-373v92h264v1477h-264v91h373v-1660z" />
    <glyph glyph-name="hyphen" unicode="-" horiz-adv-x="880" 
d="M170 571v103h540v-103h-540z" />
    <glyph glyph-name="uni00AD" unicode="&#xad;" horiz-adv-x="1023" 
d="M170 571v103h683v-103h-683z" />
    <glyph glyph-name="endash" unicode="&#x2013;" horiz-adv-x="1064" 
d="M170 571v103h724v-103h-724z" />
    <glyph glyph-name="emdash" unicode="&#x2014;" horiz-adv-x="2048" 
d="M0 571v103h2048v-103h-2048z" />
    <glyph glyph-name="underscore" unicode="_" horiz-adv-x="1289" 
d="M242 -102v102h806v-102h-806z" />
    <glyph glyph-name="uni2015" unicode="&#x2015;" horiz-adv-x="1555" 
d="M170 571v103h1215v-103h-1215z" />
    <glyph glyph-name="quotesinglbase" unicode="&#x201a;" horiz-adv-x="568" 
d="M144 -315l209 577h151l-268 -577h-92z" />
    <glyph glyph-name="quotedblbase" unicode="&#x201e;" horiz-adv-x="929" 
d="M129 -315l209 577h151l-268 -577h-92zM477 -315l209 577h151l-268 -577h-92z" />
    <glyph glyph-name="quotedblleft" unicode="&#x201c;" horiz-adv-x="919" 
d="M458 836h-92l-268 577h151zM796 836h-92l-268 577h151z" />
    <glyph glyph-name="quotedblright" unicode="&#x201d;" horiz-adv-x="919" 
d="M123 836l209 577h151l-268 -577h-92zM461 836l209 577h151l-268 -577h-92z" />
    <glyph glyph-name="quoteleft" unicode="&#x2018;" horiz-adv-x="581" 
d="M458 836h-92l-268 577h151z" />
    <glyph glyph-name="quoteright" unicode="&#x2019;" horiz-adv-x="581" 
d="M123 836l209 577h151l-268 -577h-92z" />
    <glyph glyph-name="guillemotleft" unicode="&#xab;" horiz-adv-x="991" 
d="M467 170l-396 341l396 341v-119l-257 -222l257 -222v-119zM843 170l-396 341l396 341v-119l-258 -222l258 -222v-119z" />
    <glyph glyph-name="guillemotright" unicode="&#xbb;" horiz-adv-x="991" 
d="M148 170v119l258 222l-258 222v119l396 -341zM524 170v119l257 222l-257 222v119l396 -341z" />
    <glyph glyph-name="guilsinglleft" unicode="&#x2039;" horiz-adv-x="615" 
d="M467 170l-396 341l396 341v-119l-258 -222l258 -222v-119z" />
    <glyph glyph-name="guilsinglright" unicode="&#x203a;" horiz-adv-x="615" 
d="M148 170v119l258 222l-258 222v119l396 -341z" />
    <glyph glyph-name="quotedbl" unicode="&#x22;" horiz-adv-x="931" 
d="M250 940v473h112v-473h-112zM568 940v473h113v-473h-113z" />
    <glyph glyph-name="quotesingle" unicode="'" horiz-adv-x="610" 
d="M249 969v444h112v-444h-112z" />
    <glyph glyph-name="space" unicode=" " horiz-adv-x="523" 
 />
    <glyph glyph-name="uni00A0" unicode="&#xa0;" horiz-adv-x="563" 
 />
    <glyph glyph-name="cent" unicode="&#xa2;" horiz-adv-x="1179" 
d="M579 -213v201c-257 21 -405 240 -405 510c0 250 133 492 405 515v187h71v-186c169 -9 304 -105 374 -274l-126 -49c-44 115 -134 190 -248 200v-782c117 9 205 82 243 197l121 -46c-60 -166 -193 -265 -364 -274v-197zM579 112v776c-185 -23 -271 -201 -271 -390
c0 -192 87 -365 271 -386z" />
    <glyph glyph-name="currency" unicode="&#xa4;" horiz-adv-x="1411" 
d="M319 175l-71 75l100 99c-136 164 -135 406 0 570l-99 98l72 75l100 -102c165 136 405 137 569 1l101 100l72 -72l-100 -99c136 -165 136 -407 0 -572l100 -98l-71 -75l-102 101c-164 -136 -405 -136 -570 0zM452 382c140 -141 366 -141 505 0c140 139 141 366 0 504
c-139 139 -365 139 -504 -1c-139 -139 -140 -366 -1 -503z" />
    <glyph glyph-name="dollar" unicode="$" horiz-adv-x="1149" 
d="M1042 388c0 -235 -186 -391 -431 -401v-247l-61 -2v250c-227 14 -415 149 -455 387l136 34c26 -182 150 -284 319 -297v581c-184 72 -371 151 -371 375c0 210 163 348 371 359v232h61v-232c158 -8 284 -78 368 -226l-114 -71c-59 107 -142 164 -254 174v-498
c201 -78 431 -156 431 -418zM316 1074c0 -127 104 -190 234 -244v475c-135 -10 -234 -104 -234 -231zM611 110c179 9 294 120 294 267c0 162 -138 230 -294 292v-559z" />
    <glyph glyph-name="Euro" unicode="&#x20ac;" horiz-adv-x="1349" 
d="M827 -15c-292 0 -453 223 -504 508h-171l49 100h107c-4 38 -5 76 -5 114c0 42 3 85 6 123h-157l49 104h123c55 281 217 496 501 496c156 0 287 -69 378 -196l-86 -68c-70 97 -173 144 -292 144c-217 0 -342 -160 -382 -376h531l-49 -101h-499c-4 -39 -7 -77 -7 -118
c0 -40 2 -81 6 -118h549l-49 -100h-482c38 -229 161 -393 384 -393c117 0 213 47 282 139l82 -79c-89 -116 -217 -179 -364 -179z" />
    <glyph glyph-name="florin" unicode="&#x192;" horiz-adv-x="1026" 
d="M128 -455v103c209 0 292 80 292 299v951h-173v101h173v129c0 185 110 308 264 308c81 0 154 -32 219 -88l-73 -86c-48 42 -92 61 -146 61c-88 0 -152 -67 -152 -195v-129h273v-101h-273v-961c0 -271 -139 -392 -404 -392z" />
    <glyph glyph-name="sterling" unicode="&#xa3;" horiz-adv-x="1271" 
d="M352 113h853v-113h-1030v131c158 44 275 165 275 296c0 85 -39 168 -69 250h-199v113h170c-19 54 -39 138 -39 228c0 232 158 412 410 412c188 0 329 -123 393 -298l-105 -39c-54 141 -156 224 -288 224c-178 0 -297 -117 -297 -301c0 -83 19 -165 43 -226h469v-113h-441
c27 -79 63 -158 63 -248c0 -177 -115 -270 -208 -316z" />
    <glyph glyph-name="uni20B1" unicode="&#x20b1;" horiz-adv-x="1398" 
d="M1271 1050v-62h-103c-12 -237 -196 -370 -474 -370h-252v-618h-136v988h-135v62h135v363h388c271 0 456 -133 474 -363h103zM442 1284v-234h589c-16 148 -132 234 -337 234h-252zM694 748c215 0 327 85 338 240h-590v-240h252z" />
    <glyph glyph-name="uni20B3" unicode="&#x20b3;" horiz-adv-x="1609" 
d="M222 0l114 310h-151v119h197l74 204h-271v119h319l244 661h114l244 -661h317v-119h-270l74 -204h196v-119h-150l113 -310h-148l-110 310h-646l-109 -310h-151zM642 752h328l-164 469zM526 429h559l-71 204h-416z" />
    <glyph glyph-name="uni20B4" unicode="&#x20b4;" horiz-adv-x="1483" 
d="M1102 908h200v-97h-1127v97h753c54 41 89 93 89 166c0 134 -111 232 -258 232c-130 0 -225 -58 -291 -176l-114 71c90 158 228 227 401 227c221 0 399 -140 399 -360c0 -66 -20 -118 -52 -160zM175 550v96h1127v-96h-781c-55 -43 -93 -98 -93 -178
c0 -158 134 -262 322 -262c179 0 310 97 347 269l135 -31c-52 -234 -251 -361 -491 -361c-253 0 -450 149 -450 369c0 89 35 150 75 194h-191z" />
    <glyph glyph-name="uni20B8" unicode="&#x20b8;" horiz-adv-x="1457" 
d="M167 1298v114h1123v-114h-1123zM660 0v983h-493v114h1123v-114h-492v-983h-138z" />
    <glyph glyph-name="uni20BD" unicode="&#x20bd;" horiz-adv-x="1377" 
d="M356 0v314h-182v109h182v206h-182v119h182v665h388c285 0 476 -147 476 -400s-188 -384 -476 -384h-251v-206h323v-109h-323v-314h-137zM493 748h251c226 0 339 94 339 265s-117 271 -339 271h-251v-536z" />
    <glyph glyph-name="yen" unicode="&#xa5;" horiz-adv-x="1459" 
d="M658 0v224h-362v109h362v198h-362v109h301l-476 773h166l441 -739l443 739h167l-476 -773h299v-109h-360v-198h360v-109h-360v-224h-143z" />
    <glyph glyph-name="plus" unicode="+" horiz-adv-x="1275" 
d="M587 114v460h-461v103h461v461h102v-461h460v-103h-460v-460h-102z" />
    <glyph glyph-name="minus" unicode="&#x2212;" horiz-adv-x="1236" 
d="M260 578v102h716v-102h-716z" />
    <glyph glyph-name="multiply" unicode="&#xd7;" horiz-adv-x="1108" 
d="M879 238l-325 325l-326 -326l-73 73l326 326l-326 326l73 72l325 -326l326 325l73 -73l-326 -325l326 -325z" />
    <glyph glyph-name="divide" unicode="&#xf7;" horiz-adv-x="995" 
d="M422 877v220h143v-220h-143zM130 578v102h726v-102h-726zM422 142v220h143v-220h-143z" />
    <glyph glyph-name="equal" unicode="=" horiz-adv-x="1322" 
d="M268 811v114h786v-114h-786zM268 419v113h786v-113h-786z" />
    <glyph glyph-name="notequal" unicode="&#x2260;" horiz-adv-x="1186" 
d="M148 0l233 419h-182v113h250l154 279h-404v114h473l271 488h96l-271 -488h216v-114h-285l-154 -279h439v-113h-507l-232 -419h-97z" />
    <glyph glyph-name="greater" unicode="&#x3e;" horiz-adv-x="1284" 
d="M188 48l-50 88l834 476l-834 477l50 88l991 -565z" />
    <glyph glyph-name="less" unicode="&#x3c;" horiz-adv-x="1284" 
d="M1096 48l-991 564l991 565l50 -88l-834 -477l834 -476z" />
    <glyph glyph-name="greaterequal" unicode="&#x2265;" horiz-adv-x="1352" 
d="M240 232l-50 88l834 476l-834 477l50 88l991 -565zM1168 0v-102h-1014v102h1014z" />
    <glyph glyph-name="lessequal" unicode="&#x2264;" horiz-adv-x="1352" 
d="M1112 232l-991 564l991 565l50 -88l-834 -477l834 -476zM184 0h1014v-102h-1014v102z" />
    <glyph glyph-name="plusminus" unicode="&#xb1;" horiz-adv-x="1353" 
d="M627 188v468h-476v103h476v466h102v-466h475v-103h-475v-468h-102zM151 -102v102h1042v-102h-1042z" />
    <glyph glyph-name="approxequal" unicode="&#x2248;" horiz-adv-x="1260" 
d="M805 713c-212 0 -202 250 -356 250c-83 0 -132 -78 -132 -203h-102c0 179 91 295 234 295c219 0 210 -250 356 -250c81 0 135 91 135 225h102c0 -188 -94 -317 -237 -317zM805 270c-212 0 -202 250 -356 250c-83 0 -132 -78 -132 -203h-102c0 179 91 295 234 295
c219 0 210 -250 356 -250c81 0 135 92 135 226h102c0 -190 -94 -318 -237 -318z" />
    <glyph glyph-name="asciitilde" unicode="~" horiz-adv-x="1256" 
d="M805 373c-212 0 -202 250 -356 250c-83 0 -132 -78 -132 -203h-102c0 178 91 295 234 295c219 0 210 -250 356 -250c81 0 135 91 135 225h102c0 -189 -94 -317 -237 -317z" />
    <glyph glyph-name="logicalnot" unicode="&#xac;" horiz-adv-x="1332" 
d="M938 291v387h-777v119h904v-506h-127z" />
    <glyph glyph-name="asciicircum" unicode="^" horiz-adv-x="1162" 
d="M120 457l460 1006l462 -1006h-141l-321 749l-319 -749h-141z" />
    <glyph glyph-name="infinity" unicode="&#x221e;" horiz-adv-x="2035" 
d="M570 356c-226 0 -382 161 -382 374c0 212 156 373 382 373c167 0 324 -115 442 -281c129 167 285 281 451 281c227 0 382 -161 382 -373c0 -213 -155 -374 -382 -374c-167 0 -323 115 -451 282c-119 -168 -276 -282 -442 -282zM586 465c121 0 255 88 365 265
c-111 178 -245 264 -365 264c-160 0 -279 -110 -279 -264c0 -155 119 -265 279 -265zM1448 465c160 0 278 110 278 265c0 154 -118 264 -278 264c-133 0 -267 -106 -376 -264c110 -160 243 -265 376 -265z" />
    <glyph glyph-name="integral" unicode="&#x222b;" horiz-adv-x="1013" 
d="M98 -475v113c234 0 325 82 325 296v1198c0 175 125 304 284 304c72 0 148 -28 213 -82l-72 -86c-47 38 -96 55 -141 55c-95 0 -171 -74 -171 -196v-1196c0 -272 -157 -406 -438 -406z" />
    <glyph glyph-name="uni2126" unicode="&#x2126;" horiz-adv-x="1664" 
d="M161 0v112h405l2 29c-211 121 -346 358 -346 601c0 151 60 310 155 413c113 124 291 204 454 204c164 0 343 -80 456 -205c93 -102 154 -263 154 -415c0 -263 -131 -499 -336 -602v-29h396v-108h-540v164c221 53 363 277 363 574c0 127 -46 258 -118 337
c-94 105 -241 171 -375 171s-279 -67 -373 -171c-73 -81 -119 -210 -119 -337c0 -282 141 -506 362 -575v-163h-540z" />
    <glyph glyph-name="uni2206" unicode="&#x2206;" horiz-adv-x="1370" 
d="M111 0l574 1461l575 -1461h-1149zM274 113h822l-411 1071z" />
    <glyph glyph-name="product" unicode="&#x220f;" horiz-adv-x="1349" 
d="M285 0v1300h-107v113h992v-113h-105v-1300h-113v1300h-555v-1300h-112z" />
    <glyph glyph-name="summation" unicode="&#x2211;" horiz-adv-x="1316" 
d="M1178 1413v-126h-850l553 -580l-553 -581h850v-126h-1049v90l572 617l-572 616v90h1049z" />
    <glyph glyph-name="radical" unicode="&#x221a;" horiz-adv-x="1276" 
d="M527 -134l-268 692h-149v113h229l195 -515l513 1257h121z" />
    <glyph glyph-name="uni00B5" unicode="&#xb5;" horiz-adv-x="1290" 
d="M269 -348v1347h131v-602c0 -182 86 -289 250 -289c169 0 279 106 279 301v590h131v-999h-131v170c-63 -122 -181 -185 -314 -185c-112 0 -193 43 -237 124v-457h-109z" />
    <glyph glyph-name="partialdiff" unicode="&#x2202;" horiz-adv-x="1357" 
d="M593 -11c-268 0 -435 185 -435 449c0 345 244 582 548 582c183 0 282 -135 330 -267c3 51 1 99 -6 143c-19 291 -141 431 -345 431c-128 0 -251 -54 -307 -199l-99 32c66 169 218 266 417 266c328 0 476 -263 476 -680c0 -409 -190 -757 -579 -757zM600 103
c256 0 397 197 428 407c16 171 -64 400 -307 400c-276 0 -440 -213 -440 -471c0 -212 138 -336 319 -336z" />
    <glyph glyph-name="percent" unicode="%" horiz-adv-x="1530" 
d="M408 792c-180 0 -268 159 -268 318s87 318 261 318c156 0 267 -135 267 -319c0 -183 -109 -317 -260 -317zM318 0l795 1413h96l-794 -1413h-97zM408 884c98 0 167 93 167 225c0 122 -60 227 -174 227c-118 0 -169 -114 -169 -226s52 -226 176 -226zM1129 -15
c-179 0 -267 159 -267 318s87 319 261 319c156 0 267 -136 267 -320c0 -183 -109 -317 -261 -317zM1129 77c99 0 168 93 168 225c0 122 -60 227 -174 227c-118 0 -169 -114 -169 -226s52 -226 175 -226z" />
    <glyph glyph-name="perthousand" unicode="&#x2030;" horiz-adv-x="2154" 
d="M408 792c-180 0 -268 159 -268 318s87 318 261 318c156 0 267 -135 267 -319c0 -183 -109 -317 -260 -317zM318 0l795 1413h96l-794 -1413h-97zM408 884c98 0 167 93 167 225c0 122 -60 227 -174 227c-118 0 -169 -114 -169 -226s52 -226 176 -226zM1129 -15
c-179 0 -267 159 -267 318s87 319 261 319c156 0 267 -136 267 -320c0 -183 -109 -317 -261 -317zM1754 -15c-179 0 -267 159 -267 318s87 319 261 319c156 0 266 -136 266 -320c0 -183 -108 -317 -260 -317zM1129 77c99 0 168 93 168 225c0 122 -60 227 -174 227
c-118 0 -169 -114 -169 -226s52 -226 175 -226zM1754 77c98 0 168 93 168 225c0 122 -60 227 -174 227c-119 0 -169 -114 -169 -226s51 -226 175 -226z" />
    <glyph glyph-name="uni2031" unicode="&#x2031;" horiz-adv-x="2779" 
d="M408 792c-180 0 -268 159 -268 318s87 318 261 318c156 0 267 -135 267 -319c0 -183 -109 -317 -260 -317zM318 0l795 1413h96l-794 -1413h-97zM408 884c98 0 167 93 167 225c0 122 -60 227 -174 227c-118 0 -169 -114 -169 -226s52 -226 176 -226zM1129 -15
c-179 0 -267 159 -267 318s87 319 261 319c156 0 267 -136 267 -320c0 -183 -109 -317 -261 -317zM1754 -15c-179 0 -267 159 -267 318s87 319 261 319c156 0 266 -136 266 -320c0 -183 -108 -317 -260 -317zM2379 -15c-179 0 -268 159 -268 318s88 319 262 319
c155 0 266 -136 266 -320c0 -183 -109 -317 -260 -317zM1129 77c99 0 168 93 168 225c0 122 -60 227 -174 227c-118 0 -169 -114 -169 -226s52 -226 175 -226zM1754 77c98 0 168 93 168 225c0 122 -60 227 -174 227c-119 0 -169 -114 -169 -226s51 -226 175 -226zM2379 77
c98 0 168 93 168 225c0 122 -61 227 -174 227c-119 0 -169 -114 -169 -226s51 -226 175 -226z" />
    <glyph glyph-name="arrowright" unicode="&#x2192;" horiz-adv-x="2302" 
d="M1209 89l-45 89l730 410l-1771 -2v102l1770 2l-729 406l45 89l987 -546z" />
    <glyph glyph-name="arrowleft" unicode="&#x2190;" horiz-adv-x="2302" 
d="M1093 89l-987 550l987 546l45 -89l-729 -406l1770 -2v-102l-1771 2l730 -410z" />
    <glyph glyph-name="lozenge" unicode="&#x25ca;" horiz-adv-x="1188" 
d="M498 0l-375 707l375 706h192l375 -706l-375 -707h-192zM579 74h30l324 633l-324 632h-30l-324 -632z" />
    <glyph glyph-name="uniF8FF" unicode="&#xf8ff;" horiz-adv-x="1810" 
d="M905 -61c-428 0 -774 346 -774 774s346 774 774 774s774 -346 774 -774s-346 -774 -774 -774zM905 10c389 0 703 314 703 703s-314 702 -703 702s-702 -313 -702 -702s313 -703 702 -703zM502 410c-19 0 -35 14 -35 34v537c0 20 16 37 35 37c20 0 37 -17 37 -37v-537
c0 -20 -17 -34 -37 -34zM905 410c-20 0 -35 14 -35 34v537c0 20 15 37 35 37c21 0 35 -17 35 -37v-537c0 -20 -14 -34 -35 -34zM1307 410c-9 0 -17 2 -23 10l-270 268c-6 8 -8 17 -8 25c0 10 2 18 8 24l271 269c5 8 13 12 22 12c18 0 36 -19 36 -37c0 -8 -2 -16 -10 -25
l-243 -243l243 -244c8 -8 10 -16 10 -25c0 -18 -18 -34 -36 -34zM637 678c-21 0 -35 14 -35 35c0 20 14 35 35 35h133c21 0 37 -15 37 -35c0 -21 -16 -35 -37 -35h-133z" />
    <glyph glyph-name="at" unicode="@" horiz-adv-x="2113" 
d="M1049 -353c-487 0 -890 328 -890 870c0 523 371 920 908 920c536 0 891 -391 891 -883c0 -307 -142 -621 -459 -621c-138 0 -215 81 -221 223c-3 35 -3 77 1 125c-81 -129 -207 -227 -366 -227c-205 0 -312 155 -312 365c0 268 173 631 496 631c153 0 248 -84 273 -225
l36 173l108 -2c-38 -206 -135 -563 -148 -756c-11 -119 15 -197 130 -197c255 0 356 264 356 513c0 434 -310 777 -784 777c-478 0 -804 -350 -804 -814c0 -484 358 -764 786 -764c99 0 182 16 269 45l38 -101c-101 -35 -196 -52 -308 -52zM922 162c268 0 405 304 405 530
c0 160 -70 250 -216 250c-269 0 -408 -301 -408 -527c0 -162 73 -253 219 -253z" />
    <glyph glyph-name="ampersand" unicode="&#x26;" horiz-adv-x="1415" 
d="M1288 17l-94 -83l-190 222c-113 -109 -262 -172 -436 -172c-252 0 -431 125 -431 339c0 221 172 333 352 426c-59 67 -192 205 -192 356c0 194 170 321 366 321c191 0 344 -139 344 -320c0 -191 -157 -294 -327 -385l321 -372c55 94 87 210 95 338l129 -12
c-12 -165 -61 -309 -140 -423zM425 1103c0 -112 122 -241 170 -299c155 80 289 159 289 300c0 121 -88 217 -220 217c-137 0 -239 -86 -239 -218zM565 97c148 0 271 56 361 151l-356 415c-161 -87 -305 -178 -305 -342c0 -142 118 -224 300 -224z" />
    <glyph glyph-name="paragraph" unicode="&#xb6;" horiz-adv-x="1265" 
d="M581 -246v869c-234 0 -453 145 -453 395s219 395 453 395h95v-1659h-95zM897 -246v1659h96v-1659h-96z" />
    <glyph glyph-name="section" unicode="&#xa7;" horiz-adv-x="1193" 
d="M603 -14c-197 0 -361 83 -429 276l125 39c60 -146 156 -207 312 -207c165 0 287 68 287 174c0 256 -683 132 -683 504c0 82 33 148 88 201c-58 46 -87 103 -87 173c0 175 170 282 369 282c174 0 301 -67 370 -175l-105 -62c-52 88 -137 133 -269 133
c-155 0 -253 -83 -253 -180c0 -248 683 -123 683 -502c0 -74 -26 -142 -85 -200c55 -44 85 -101 85 -174c0 -185 -194 -282 -408 -282zM813 493c55 33 85 85 85 146c0 191 -297 205 -486 290c-59 -38 -84 -98 -84 -153c0 -187 301 -199 485 -283z" />
    <glyph glyph-name="copyright" unicode="&#xa9;" horiz-adv-x="1725" 
d="M863 -19c-404 0 -732 324 -732 726c0 401 328 726 732 726s731 -325 731 -726c0 -402 -327 -726 -731 -726zM863 68c356 0 645 286 645 639c0 352 -289 639 -645 639c-357 0 -646 -286 -646 -639c0 -354 289 -639 646 -639zM885 238c-258 0 -407 207 -407 467
c0 238 133 470 405 470c165 0 297 -86 364 -248l-105 -41c-45 115 -141 188 -259 188c-200 0 -293 -179 -293 -369c0 -193 93 -366 294 -366c122 0 215 71 253 186l100 -39c-55 -157 -185 -248 -352 -248z" />
    <glyph glyph-name="registered" unicode="&#xae;" horiz-adv-x="1725" 
d="M863 -19c-404 0 -732 324 -732 726c0 401 328 726 732 726s731 -325 731 -726c0 -402 -327 -726 -731 -726zM863 68c356 0 645 286 645 639c0 352 -289 639 -645 639c-357 0 -646 -286 -646 -639c0 -354 289 -639 646 -639zM635 269v875h245c178 0 291 -95 291 -246
c0 -113 -65 -195 -180 -224l240 -405h-104l-226 395c-17 -1 -36 -2 -54 -2h-121v-393h-91zM726 737h161c126 2 194 60 194 160c0 104 -73 164 -200 164h-155v-324z" />
    <glyph glyph-name="trademark" unicode="&#x2122;" horiz-adv-x="1238" 
d="M248 877v456h-157v80h398v-80h-155v-456h-86zM607 877v536h141l131 -375l131 375h136v-536h-86v443l-154 -408h-55l-158 413v-448h-86z" />
    <glyph glyph-name="degree" unicode="&#xb0;" horiz-adv-x="970" 
d="M485 853c-157 0 -287 129 -287 288c0 158 130 287 287 287c158 0 287 -129 287 -287c0 -159 -129 -288 -287 -288zM485 945c109 0 196 87 196 196c0 108 -87 195 -196 195c-108 0 -195 -87 -195 -195c0 -109 87 -196 195 -196z" />
    <glyph glyph-name="bar" unicode="|" horiz-adv-x="643" 
d="M271 -512v2046h101v-2046h-101z" />
    <glyph glyph-name="brokenbar" unicode="&#xa6;" horiz-adv-x="653" 
d="M271 731v744h111v-744h-111zM271 -307v727h111v-727h-111z" />
    <glyph glyph-name="dagger" unicode="&#x2020;" horiz-adv-x="841" 
d="M360 -205v1092h-249v121h249v405h121v-405h249v-121h-249v-1092h-121z" />
    <glyph glyph-name="daggerdbl" unicode="&#x2021;" horiz-adv-x="916" 
d="M398 -205v405h-250v121h250v566h-250v121h250v405h121v-405h249v-121h-249v-566h249v-121h-249v-405h-121z" />
    <glyph glyph-name="uni2116" unicode="&#x2116;" horiz-adv-x="2372" 
d="M1072 222v1191h132v-1413h-145l-703 1197v-1197h-132v1413h145zM1832 315c-240 0 -406 193 -406 437c0 239 166 432 406 432c239 0 409 -193 409 -432c0 -243 -170 -437 -409 -437zM1832 1087c-183 0 -293 -149 -293 -335c0 -190 110 -341 293 -341s295 152 295 341
c0 185 -112 335 -295 335zM1446 0v102h747v-102h-747z" />
    <glyph glyph-name="uni02F5" unicode="&#x2f5;" horiz-adv-x="1107" 
d="M417 696l-263 303h142l223 -303h-102zM843 696l-270 303h144l228 -303h-102z" />
    <glyph glyph-name="uni02F6" unicode="&#x2f6;" horiz-adv-x="1107" 
d="M264 696h-102l228 303h144zM690 696h-102l223 303h142z" />
    <glyph glyph-name="uni02D0" unicode="&#x2d0;" horiz-adv-x="580" 
d="M302 594l-239 405l441 24zM76 -24l202 430l238 -406z" />
    <glyph glyph-name="uni02D1" unicode="&#x2d1;" horiz-adv-x="595" 
d="M310 245l-238 406l440 24z" />
    <glyph glyph-name="uni0308" unicode="&#x308;" 
d="M-650 1208v205h113v-205h-113zM-286 1208v205h112v-205h-112z" />
    <glyph glyph-name="uni0307" unicode="&#x307;" 
d="M-312 1208v205h138v-205h-138z" />
    <glyph glyph-name="gravecomb" unicode="&#x300;" 
d="M-175 1127l-259 286h142l218 -286h-101z" />
    <glyph glyph-name="acutecomb" unicode="&#x301;" 
d="M-428 1127l218 286h142l-259 -286h-101z" />
    <glyph glyph-name="uni030B" unicode="&#x30b;" 
d="M-768 1107l218 306h122l-239 -306h-101zM-426 1107l218 306h142l-259 -306h-101z" />
    <glyph glyph-name="caroncomb.alt" 
d="M-351 993l118 420h139l-174 -420h-83z" />
    <glyph glyph-name="uni0302" unicode="&#x302;" 
d="M-659 1113l301 319l302 -319h-110l-192 201l-190 -201h-111z" />
    <glyph glyph-name="uni030C" unicode="&#x30c;" 
d="M-360 1105l-301 308h111l190 -195l192 195h111z" />
    <glyph glyph-name="uni0306" unicode="&#x306;" 
d="M-428 1148c-205 0 -305 94 -305 265h96c0 -122 80 -183 209 -183c131 0 208 63 208 183h96c0 -175 -105 -265 -304 -265z" />
    <glyph glyph-name="uni030A" unicode="&#x30a;" 
d="M-321 1095c-108 0 -193 88 -193 194c0 108 86 194 193 194c106 0 195 -86 195 -194s-86 -194 -195 -194zM-321 1170c68 0 119 53 119 120c0 66 -49 117 -119 117c-67 0 -117 -51 -117 -117c0 -68 51 -120 117 -120z" />
    <glyph glyph-name="tildecomb" unicode="&#x303;" 
d="M-316 1158c-167 0 -168 179 -279 178c-63 1 -102 -59 -102 -160h-80c0 155 72 246 187 245c154 1 162 -177 275 -177c55 0 95 65 95 169h83c0 -158 -71 -255 -179 -255z" />
    <glyph glyph-name="uni0304" unicode="&#x304;" 
d="M-717 1220v82h548v-82h-548z" />
    <glyph glyph-name="uni030F" unicode="&#x30f;" 
d="M-417 1107h-101l-259 306h142zM-75 1107h-101l-239 306h122z" />
    <glyph glyph-name="uni0312" unicode="&#x312;" 
d="M-99 1424l-182 -299h-141l238 299h85z" />
    <glyph glyph-name="uni031B" unicode="&#x31b;" 
d="M-413 1008v90c129 0 174 87 174 208v107h103v-98c0 -187 -83 -307 -277 -307z" />
    <glyph glyph-name="uni0326" unicode="&#x326;" 
d="M-392 -447l182 334h141l-238 -334h-85z" />
    <glyph glyph-name="uni0327" unicode="&#x327;" 
d="M-310 -516c-83 0 -162 53 -193 129l78 33c17 -48 65 -82 118 -82c77 0 123 42 123 112c0 74 -67 123 -182 131c-25 2 -53 3 -87 3l111 189h83l-82 -132c24 -1 45 -4 64 -8c114 -23 175 -85 175 -178c0 -117 -83 -197 -208 -197z" />
    <glyph glyph-name="uni0328" unicode="&#x328;" 
d="M-292 -456c-125 0 -208 73 -208 190c0 148 145 250 232 270l106 -4c-109 -30 -255 -123 -255 -250c0 -85 48 -121 122 -121c64 0 109 27 148 82l70 -48c-52 -76 -118 -119 -215 -119z" />
    <glyph glyph-name="uni0337" unicode="&#x337;" 
d="M-840 299v151l609 690v-150z" />
    <glyph glyph-name="acute" unicode="&#xb4;" horiz-adv-x="502" 
d="M74 1127l218 286h142l-259 -286h-101z" />
    <glyph glyph-name="breve" unicode="&#x2d8;" horiz-adv-x="857" 
d="M433 1148c-205 0 -305 94 -305 265h96c0 -122 80 -183 209 -183c131 0 208 63 208 183h96c0 -175 -105 -265 -304 -265z" />
    <glyph glyph-name="caron" unicode="&#x2c7;" horiz-adv-x="719" 
d="M363 1105l-301 308h111l190 -195l192 195h111z" />
    <glyph glyph-name="cedilla" unicode="&#xb8;" horiz-adv-x="596" 
d="M286 -516c-83 0 -162 53 -193 129l78 33c17 -48 65 -82 118 -82c77 0 123 42 123 112c0 74 -67 123 -182 131c-25 2 -53 3 -87 3l111 189h83l-82 -132c24 -1 45 -4 64 -8c114 -23 175 -85 175 -178c0 -117 -83 -197 -208 -197z" />
    <glyph glyph-name="circumflex" unicode="&#x2c6;" horiz-adv-x="714" 
d="M55 1113l301 319l302 -319h-110l-192 201l-190 -201h-111z" />
    <glyph glyph-name="dieresis" unicode="&#xa8;" horiz-adv-x="804" 
d="M174 1208v205h113v-205h-113zM538 1208v205h112v-205h-112z" />
    <glyph glyph-name="dotaccent" unicode="&#x2d9;" horiz-adv-x="486" 
d="M183 1208v205h138v-205h-138z" />
    <glyph glyph-name="grave" unicode="`" horiz-adv-x="500" 
d="M329 1127l-259 286h142l218 -286h-101z" />
    <glyph glyph-name="hungarumlaut" unicode="&#x2dd;" horiz-adv-x="822" 
d="M80 1107l218 306h122l-239 -306h-101zM422 1107l218 306h142l-259 -306h-101z" />
    <glyph glyph-name="macron" unicode="&#xaf;" horiz-adv-x="886" 
d="M173 1220v82h548v-82h-548z" />
    <glyph glyph-name="ogonek" unicode="&#x2db;" horiz-adv-x="616" 
d="M324 -456c-125 0 -208 73 -208 190c0 148 145 250 232 270l106 -4c-109 -30 -255 -123 -255 -250c0 -85 48 -121 122 -121c64 0 109 27 148 82l70 -48c-52 -76 -118 -119 -215 -119z" />
    <glyph glyph-name="ring" unicode="&#x2da;" horiz-adv-x="640" 
d="M323 1095c-108 0 -193 88 -193 194c0 108 86 194 193 194c106 0 195 -86 195 -194s-86 -194 -195 -194zM323 1170c68 0 119 53 119 120c0 66 -49 117 -119 117c-67 0 -117 -51 -117 -117c0 -68 51 -120 117 -120z" />
    <glyph glyph-name="tilde" unicode="&#x2dc;" horiz-adv-x="911" 
d="M612 1158c-167 0 -168 179 -279 178c-63 1 -102 -59 -102 -160h-80c0 155 72 246 187 245c154 1 162 -177 275 -177c55 0 95 65 95 169h83c0 -158 -71 -255 -179 -255z" />
    <glyph glyph-name="tonos" unicode="&#x384;" horiz-adv-x="443" 
d="M137 1127l77 286h111l-118 -286h-70z" />
    <glyph glyph-name="dieresistonos" unicode="&#x385;" horiz-adv-x="687" 
d="M279 1541l77 286h111l-118 -286h-70zM84 1208v205h113v-205h-113zM448 1208v205h112v-205h-112z" />
    <glyph glyph-name="uni0483" unicode="&#x483;" 
d="M-970 1559v281h697v147h135v-273h-700v-155h-132z" />
    </font>
</defs>
</svg>
